<?xml version="1.0" standalone="no"?> <!DOCTYPE svg PUBLIC "-//W3C//DTD SVG 1.0//EN" "http://www.w3.org/TR/2001/REC-SVG-20010904/DTD/svg10.dtd" > <svg xmlns="http://www.w3.org/2000/svg" width="100%" height="100%">
<defs>
<font horiz-adv-x="481" id="peace"><font-face
    font-family="Peace"
    units-per-em="1000"
    panose-1="0 0 4 0 0 0 0 0 0 0"
    ascent="950"
    descent="-150"
    alphabetic="0" />
<missing-glyph horiz-adv-x="500" d="M63 0V950H438V0H63ZM125 63H375V888H125V63Z" />
<glyph unicode=" " glyph-name="space" horiz-adv-x="265" />
<glyph unicode="!" glyph-name="exclam" horiz-adv-x="257" d="M300 89Q304 17 261 -39T153 -102Q89 -109 41 -63T-12 56Q-14 110 10 156T76 228L22 721L238 725L205 236Q245 219 271 179T300 89ZM254 84Q252 131 223 163T152 197L163 89L248 33Q256 58 254 84ZM224
-10L170 26L177 -46Q204 -35 224 -10ZM116 80L105 188Q72 172 52 137T34 61Q35 40 42 20L116 80ZM129 -52L121 24L67 -20Q93 -48 129 -52Z" />
<glyph unicode="&quot;" glyph-name="quotedbl" horiz-adv-x="287" d="M5 710Q84 704 146 715Q125 616 125 492Q125 447 128 412L23 425Q27 666 5 710ZM350 716Q328 715 267 719Q200 723 201 723Q199 723 199 723Q200 722 209 721Q209 665 218 582T228 462Q228
439 226 418L332 431Q327 672 350 716Z" />
<glyph unicode="#" glyph-name="numbersign" horiz-adv-x="709" d="M534 796L528 789Q491 820 449 825Q401 859 325 871L327 880Q401 868 453 834Q496 829 534 796ZM575 755L570 747Q449 827 278 861L280 870Q451 837 575 755ZM612 707L607 700Q534 752 440 792Q335
838 258 842L259 852Q418 842 612 707ZM635 671L630 664Q545 726 434 772Q311 823 219 825V835Q317 832 437 782Q542 738 635 671ZM657 612L652 604Q636 612 579 659L560 661Q533 687 463 717Q405 742 355 755Q247 783 167 783V792Q260 792 358 764Q511 719 564
670H567Q547 693 498 720Q388 780 204 808L206 818Q453 780 561 689Q568 681 583 668L609 665Q622 658 647 643L641 635Q631 643 607 656L597 657Q616 640 657 612ZM656 571L651 562Q624 576 578 608Q529 642 504 655Q388 717 236 742L237 751Q391 726 509 663Q533
650 582 616Q628 585 656 571ZM673 576L667 569Q569 652 432 707Q285 766 166 762V772H176Q333 776 516 679Q608 630 673 576ZM678 491L670 485Q635 530 591 569L589 568L588 571Q439 700 297 702L296 701L293 702H292Q280 715 242 712L241 722Q251 723 260 722Q248
726 237 725L236 734Q239 735 243 735Q265 735 296 712Q442 712 593 579Q594 579 596 580Q623 580 661 542L655 535Q623 567 602 570Q648 529 678 491ZM683 450L676 445Q606 549 489 620Q364 696 247 692L246 702H252Q411 705 561 581Q636 518 683 450ZM683 345L674
342L666 365L676 368L683 345ZM679 432L671 426Q549 587 449 628Q568 563 673 404L665 399Q615 475 548 540Q467 618 397 641V641Q328 670 253 672V681Q333 679 404 649Q433 649 477 625Q570 574 679 432ZM666 287L657 285L650 309L659 312L666 287ZM221 731Q213
724 205 724Q198 724 187 728V727L185 729L152 721L150 731L183 738Q187 743 193 747L150 741L148 750L194 757L195 749Q202 753 214 756L217 747Q201 742 194 736Q202 733 206 734Q210 734 215 738L221 731ZM670 380L662 375Q534 569 391 622Q371 628 331 641T260
654Q212 653 165 632Q136 619 80 583L75 591Q168 651 199 655Q219 659 260 663Q292 664 333 650Q385 633 404 626Q443 611 471 594Q571 530 670 380ZM228 718L227 709Q211 711 195 711Q161 710 133 697L129 705Q158 719 196 720Q213 720 228 718ZM239 700L238 691Q228
693 216 693Q177 692 122 673L118 682Q175 702 215 702Q228 703 239 700ZM666 342L657 340Q640 397 616 412Q651 351 656 314L647 312Q641 351 603 416V416Q602 419 599 422V423Q564 486 504 537T376 610Q362 615 323 623Q317 625 305 629Q281 636 255 635Q227
635 181 618Q130 599 119 578L118 579L108 570L102 577L108 582Q92 581 75 552L67 557Q87 591 108 591Q113 592 117 590Q183 643 255 645Q282 645 307 638Q314 636 326 632Q348 628 393 615Q531 564 609 426Q641 424 666 342ZM249 677L214 670Q208 655 186 655Q168
654 149 643L144 651Q165 664 191 664Q200 664 204 672Q198 675 189 675Q162 675 115 647L111 655Q157 683 188 684Q202 684 211 679L247 687L249 677ZM144 638Q130 638 109 619L103 627Q127 647 139 647H144V638ZM622 161Q609 131 596 122L591 128Q573 103 540
85L535 93Q589 123 598 168L607 166Q604 148 592 131Q601 137 613 165L622 161ZM560 164Q535 129 509 128Q481 128 454 170Q443 191 419 232Q386 289 333 378L331 382L339 387L342 383Q392 297 425 240Q437 218 463 175Q486 138 507 138Q529 139 552 170L560 164ZM600
117Q581 89 560 81L557 90Q575 97 592 122L600 117ZM657 268L648 267Q644 298 626 320Q602 431 502 520Q430 586 315 610Q282 617 258 617Q204 616 151 574Q141 556 123 542Q128 544 134 546Q156 573 183 581Q206 604 255 605Q313 606 379 581Q504 534 567 438Q606
378 620 325Q650 284 653 222H644Q642 259 628 291Q635 256 636 228Q636 196 628 179L619 183Q627 198 627 227Q626 259 615 308T589 383Q568 418 557 434Q539 462 520 482Q469 537 376 572Q312 597 255 596Q211 595 190 574Q219 590 258 590Q328 592 403 549Q405
550 407 550Q434 550 492 503T596 350Q618 299 619 232Q619 206 615 180L605 182Q609 205 609 237Q607 322 556 408Q503 498 429 534Q495 488 542 411T601 253L603 251H602Q603 237 604 224Q605 170 573 133Q555 112 546 103Q530 88 512 81Q486 53 458 52Q414 52
375 109Q349 146 315 228T269 329Q275 270 335 154Q392 45 459 46Q500 47 543 86L550 79Q530 61 513 52Q544 64 581 85L585 76Q490 24 435 23Q426 23 420 24Q412 22 404 22Q357 21 320 73T275 136Q251 173 239 204V208Q240 222 232 234Q240 176 268 131Q312 62
326 48Q363 11 418 12Q426 12 441 12Q459 12 486 26Q524 46 573 60L577 62L580 53L575 51Q527 37 490 17Q462 3 441 2Q383 1 353 17Q320 33 288 82Q227 176 221 244L219 245L220 247Q200 308 199 356Q199 387 207 411L216 408Q209 386 209 356Q210 309 229 250Q250
233 249 206Q276 137 335 69Q369 31 404 31Q412 31 420 34Q425 32 435 32Q450 32 468 37Q465 37 461 37Q381 35 326 150Q262 286 259 330Q259 336 257 349H259Q256 362 256 376Q255 432 294 442Q306 444 330 450Q318 455 308 455Q294 455 281 444L275 452Q291 464
309 465Q320 465 339 456Q397 428 446 349Q455 334 487 269Q501 240 528 182Q530 175 531 167Q533 172 533 178Q533 184 531 192L528 196L530 197Q525 216 513 239Q511 242 507 250Q501 266 489 297Q438 418 354 462Q326 476 293 476Q226 474 226 410H217Q217 484
290 485Q328 486 358 470Q445 426 498 302Q504 286 516 254Q518 249 523 241Q535 216 540 196Q544 190 547 190Q551 190 551 200Q483 388 423 436Q384 468 370 476Q347 487 306 494L307 504Q350 497 373 484Q389 476 429 444Q491 394 560 201Q560 179 549 179Q546
179 542 182V179Q543 146 516 146Q488 145 462 196Q408 302 404 309Q354 398 331 397H329Q326 386 326 376Q326 360 345 330T427 187Q466 116 503 117Q513 117 522 123Q523 124 523 124Q569 157 568 188Q567 227 523 318Q481 406 450 437Q392 497 318 519Q313 513
279 511Q242 508 219 493Q183 470 165 413L156 416Q187 511 284 521Q295 521 311 525L310 524L311 522L314 527Q309 526 303 526Q295 527 279 529Q257 529 231 518Q137 481 139 334Q140 301 145 276Q160 197 189 122Q230 17 275 -3Q278 -6 285 -6Q291 -6 301 -2Q311
-21 359 -19V-29H354Q322 -30 304 -20L305 -23Q294 -26 283 -27Q263 -27 242 -17L246 -8Q265 -17 283 -17Q293 -17 298 -15L297 -14Q290 -16 285 -16Q278 -16 269 -11Q252 0 243 9Q204 47 172 133Q145 207 135 274Q130 311 130 334Q127 475 213 520Q114 482 116
363Q116 340 121 295Q141 94 251 -1L245 -9Q160 63 126 205Q114 257 107 348Q106 326 106 302Q110 109 217 15L211 8Q146 66 120 143Q99 206 97 306Q94 447 143 512Q110 478 92 400Q76 335 77 275Q78 251 80 227L71 226Q68 252 68 274Q67 327 80 390Q96 463 121
500L111 485V482H108Q65 412 62 319L53 320Q55 407 93 474Q66 450 52 369L43 370Q52 428 70 461L63 464Q75 497 93 510L98 502Q84 492 75 468Q86 486 103 490Q138 543 186 572Q163 565 143 542V541Q141 539 139 537Q126 526 113 506L105 512Q111 520 115 526Q108
520 101 509L93 514Q100 525 107 532L96 526V526Q62 500 59 448L49 449Q53 504 88 532V533L90 534Q92 559 144 581L145 583H147Q198 625 261 626Q365 628 490 543Q541 509 581 448T635 324Q653 300 657 268ZM105 566L79 533V533L62 505L54 510L71 540L72 539L97
572L105 566ZM410 42L406 33Q373 46 351 73T306 127L305 128V129Q219 234 217 373Q217 383 217 396L227 395Q226 385 226 374Q229 250 306 143Q301 173 260 259Q233 316 232 377Q231 465 300 475L301 465Q241 457 242 378Q243 320 269 263Q318 154 315 131Q336
105 356 80Q380 53 410 42ZM430 -11Q404 -16 381 -16Q336 -17 316 -6Q282 14 243 78Q207 135 194 180Q168 274 166 356Q166 403 189 451Q196 467 199 471Q205 482 214 486L218 478Q207 472 196 443L192 445L195 443Q175 420 176 358Q177 275 204 183Q216 140 250
84Q289 20 321 3Q339 -8 380 -7Q401 -7 429 -2L430 -11ZM366 8L365 -2L361 -1Q342 0 316 21Q226 92 190 281Q185 310 184 343Q182 503 288 505Q293 505 302 505V495Q296 495 291 495Q192 494 194 346Q195 314 200 283Q212 204 254 120Q307 12 366 8ZM555 -4L505
-25L501 -16L551 4L555 -4ZM583 33Q488 -30 366 -38L365 -28Q482 -22 578 41L583 33ZM496 -26Q485 -34 449 -48L446 -39Q462 -33 491 -18L496 -26ZM291 5L285 -3Q219 54 183 161Q151 253 149 354Q149 384 152 412L161 411Q157 375 158 339Q161 154 265 33Q281 14
291 5ZM443 -46Q425 -54 363 -61L362 -52Q389 -50 439 -38L443 -46ZM440 -66Q404 -82 350 -82H342V-73H351Q401 -73 437 -57L440 -66ZM151 71L144 65Q83 137 80 297Q80 313 81 329L90 328Q90 312 90 295Q92 143 151 71ZM360 -63L301 -67L300 -58L359 -53L360 -63ZM321
-39Q305 -43 291 -43Q275 -44 257 -40L259 -31Q276 -34 291 -34Q303 -34 318 -30L321 -39ZM198 16L192 9Q162 31 151 51L160 55Q169 37 198 16ZM402 539L400 540L402 539V539ZM400 540L396 542V542L400 540ZM422 490Q409 508 391 512Q400 501 422 490ZM576 218Q576
238 567 258T549 297Q546 306 539 324Q514 388 476 431Q462 448 432 478V476Q389 493 378 514Q364 525 328 537Q325 531 319 529Q401 505 457 444Q521 374 575 203Q576 210 576 218ZM588 277Q569 363 512 439T377 552Q314 582 258 581Q192 579 137 519Q188 572
263 573Q281 573 333 563Q344 561 366 554Q410 537 470 475T549 369Q572 310 588 277ZM594 225Q594 237 592 249Q581 264 564 305Q541 363 540 365Q533 379 506 416Q431 519 363 546Q354 549 331 553Q278 564 263 563Q253 563 244 562Q273 563 317 551T382 523L385
524V522Q418 520 436 488Q445 481 483 438Q516 400 545 333Q549 322 557 301Q560 296 566 286Q585 249 586 220Q586 198 577 182Q572 147 531 118Q526 93 492 92Q446 92 381 195Q388 171 420 134L413 128Q372 175 371 201Q371 206 372 210Q297 336 297 382Q296
408 312 408Q318 408 324 405Q327 407 330 407Q359 407 411 319Q443 263 471 200Q491 154 516 155Q509 160 503 170Q502 171 474 224Q450 269 401 358Q364 423 320 422Q285 421 286 387Q286 370 296 349H295Q344 231 360 197Q416 86 461 77L459 67Q395 81 326 250Q310
288 279 364H280Q276 376 276 386Q276 431 320 431Q369 432 410 362Q420 344 482 229Q491 210 512 175Q517 165 522 162Q522 168 519 178Q518 179 500 221Q457 315 437 347Q394 419 340 445Q333 439 321 437T296 433Q263 424 264 379Q264 363 270 343Q281 333 320
240Q352 164 372 132Q415 61 457 62Q476 62 493 76Q490 76 487 76Q448 75 420 117L428 122Q453 85 488 85Q497 86 507 89L510 93L513 91Q539 103 571 146Q595 177 594 225ZM318 540Q277 553 244 553Q156 551 124 451Q144 494 185 518T275 543H280V539Q292 535 304
535Q314 535 318 540ZM133 565Q108 551 101 539Q120 550 133 565ZM516 110Q510 108 503 108Q453 107 408 201Q389 242 336 326Q317 357 316 376Q316 386 319 397Q316 398 313 398Q306 398 306 386Q307 336 376 222Q449 101 492 102Q509 102 516 110ZM383 211V211L382
212L383 211Z" />
<glyph unicode="$" glyph-name="dollar" horiz-adv-x="444" d="M444 623Q444 551 397 502Q396 491 394 480L372 481Q338 459 299 459Q249 459 210 492T158 578Q147 556 147 531Q147 473 219 455Q286 441 353 426Q425 398 425 315Q425 242 387 193Q364 163 317
134Q279 110 279 101Q279 84 284 56Q291 23 292 11L285 0Q249 -4 176 -10Q170 -7 163 119Q79 130 54 204Q39 245 39 351L130 353Q159 354 205 343Q210 318 214 293Q224 257 241 257Q249 257 256 278Q262 295 262 306Q262 352 203 362Q112 377 95 386Q36 419 36
522Q36 602 70 646Q98 681 176 720Q175 731 169 761Q164 787 164 803Q164 825 199 831Q206 832 251 834L263 827Q265 804 265 783Q282 787 299 787Q359 787 401 739T444 623ZM402 623Q402 667 376 700T313 739L317 637L393 576Q402 599 402 623ZM273 632L268 734Q236
723 216 693T195 623Q195 603 201 584L273 632ZM369 538L320 577L323 509Q350 517 369 538ZM278 508L275 580L222 544Q245 516 278 508Z" />
<glyph unicode="&amp;" glyph-name="ampersand" horiz-adv-x="595" d="M581 229Q537 235 511 237Q507 185 479 143T406 82Q371 15 238 15Q123 15 68 53Q1 99 1 209Q1 301 53 359T196 430H185Q129 427 84 487Q41 542 41 600Q41 697 135 763Q220 821 322 821Q433
821 468 734Q488 683 488 551Q488 530 452 530Q425 530 372 533T294 537L286 545L287 603Q288 688 242 688Q214 688 197 658Q183 633 183 603Q183 527 258 509Q285 502 394 502Q394 483 397 426Q457 403 489 343Q535 346 581 348V229ZM462 264Q458 308 431 340T365
381L367 280L459 222Q464 243 462 264ZM440 175L368 220L370 125Q413 136 440 175ZM317 295L315 381Q272 371 246 332T223 243Q224 235 226 227L271 261V261Q272 261 317 295ZM320 125L318 233L245 179Q273 136 320 125Z" />
<glyph unicode="&apos;" glyph-name="quotesingle" horiz-adv-x="287" d="M64 743Q121 737 223 753Q198 645 198 514Q198 479 200 451L77 457Q85 698 64 743Z" />
<glyph unicode="(" glyph-name="parenleft" horiz-adv-x="358" d="M383 856L360 730Q331 739 304 739Q248 739 210 699Q211 685 211 670Q211 553 138 490Q132 432 132 310Q132 202 168 133Q213 46 306 46Q323 46 342 49L358 -155Q9 -127 9 314Q9 395 16 464Q-36
481 -69 539T-103 670Q-103 758 -57 820T54 883Q120 883 166 819Q223 859 300 859Q327 859 383 856ZM165 670Q165 725 140 767T76 820L80 679L155 607Q165 637 165 670ZM31 681L27 818Q-9 805 -33 764T-57 670Q-57 630 -42 595L31 681ZM131 560L83 607L85 524Q111
534 131 560ZM35 520L33 607L-15 551Q7 526 35 520Z" />
<glyph unicode=")" glyph-name="parenright" horiz-adv-x="405" d="M412 49Q412 -40 362 -103T241 -167Q203 -167 168 -147Q109 -167 31 -168L43 13Q58 12 73 13Q70 31 70 49Q70 139 120 202T241 266Q245 266 249 266Q251 290 251 316Q251 507 231 581Q189 735
51 726L22 724L13 840L47 842Q222 852 304 717Q369 608 369 417Q369 241 366 197Q412 135 412 49ZM362 49Q362 103 337 144T272 199L270 70L344 -31Q362 6 362 49ZM216 201Q175 190 148 148T121 49Q121 24 127 0L214 75L216 201ZM309 -78L268 -22L266 -102Q289
-95 309 -78ZM212 0L151 -53Q175 -88 210 -100L212 0Z" />
<glyph unicode="*" glyph-name="asterisk" horiz-adv-x="515" d="M490 500Q452 496 413 489Q411 453 394 421Q428 381 450 369Q399 339 330 270Q320 295 299 343Q272 334 244 334Q233 334 223 335Q220 334 217 334Q191 293 186 267Q143 307 56 351Q82 374 108
400Q76 442 75 493Q40 500 20 497Q44 551 59 647Q68 642 124 614Q146 635 169 645Q184 652 193 654Q190 717 178 743Q199 741 215 741Q260 741 332 753Q320 703 315 648Q345 634 370 608Q414 626 433 644Q446 587 490 500ZM364 498Q364 541 336 573T264 613L268
518L360 468Q364 483 364 498ZM336 424L272 459L275 386Q312 395 336 424ZM218 521L213 610Q174 600 149 569T124 498Q124 481 129 465L218 521ZM225 383L221 463L154 421Q183 390 225 383Z" />
<glyph unicode="," glyph-name="comma" horiz-adv-x="306" d="M277 180Q248 138 190 10Q134 -113 125 -123Q65 -100 2 -74L4 -64Q13 -17 43 75T82 217Q114 216 178 202T277 188V180Z" />
<glyph unicode="-" glyph-name="hyphen" horiz-adv-x="413" d="M371 375L361 146Q285 152 209 152Q108 152 6 141Q17 289 14 371H58Q61 437 99 484T193 534Q251 537 295 491T345 375H371ZM304 365Q302 409 278 441T220 482L223 371L299 319Q305 341 304 365ZM180
370L177 481Q142 471 120 436T100 354Q101 332 109 312L180 370ZM281 279L225 318L227 238Q260 248 281 279ZM185 237L182 316L130 274Q153 245 185 237Z" />
<glyph unicode="." glyph-name="period" horiz-adv-x="309" d="M287 147Q287 86 250 48T151 9Q107 9 76 32T45 99Q45 155 54 181Q68 220 111 239Q179 270 185 270Q231 270 261 230Q287 194 287 147ZM213 161Q213 224 167 224Q136 224 115 194T94 132Q94 102 110
80T154 58Q213 58 213 161Z" />
<glyph unicode="/" glyph-name="slash" horiz-adv-x="565" d="M574 657Q490 549 386 383Q388 366 388 349Q385 283 349 234T261 177Q169 26 106 -65L12 -7Q73 75 162 213Q111 265 114 349Q117 421 158 472T257 523Q299 523 332 493Q399 608 462 720L574 657ZM347
349Q349 392 330 425T280 469L274 366L331 285Q346 315 347 349ZM235 470Q202 462 179 428T155 349Q154 329 158 310L230 370L235 470ZM302 248L270 292L267 228Q286 234 302 248ZM226 310L176 267Q194 239 222 230L226 310Z" />
<glyph unicode="0" glyph-name="zero" horiz-adv-x="529" d="M504 326Q504 177 442 84Q369 -24 227 -24Q-2 -24 -2 332Q-2 474 65 566Q141 669 278 669Q405 669 462 554Q504 467 504 326ZM426 343Q430 437 384 504T267 571Q196 571 144 504T88 343Q84 249 130
182T247 115Q318 115 370 182T426 343ZM377 343Q377 333 375 323L328 360V360Q328 360 281 397L280 504Q324 496 352 450T377 343ZM357 261Q331 205 284 187L282 320L357 261ZM231 373L141 292Q136 317 137 343Q139 398 165 440T230 498L231 373ZM234 182Q190 190
162 236L232 299L234 182Z" />
<glyph unicode="1" glyph-name="one" horiz-adv-x="292" d="M260 752Q248 603 244 527Q246 515 246 502Q246 481 242 460Q241 424 241 391Q241 279 256 4L250 0Q249 0 51 0L45 4Q52 160 54 306Q-3 313 -40 360T-78 474Q-78 538 -43 591T48 663V664Q121 689 254
756L260 752ZM198 498Q198 547 170 581T99 618L104 505L189 445Q198 471 198 498ZM162 400L108 439L111 364Q140 375 162 400ZM55 496L50 609Q14 593 -8 557T-31 478Q-31 456 -24 435L55 496ZM61 359L58 438L-1 393Q24 364 61 359Z" />
<glyph unicode="2" glyph-name="two" horiz-adv-x="594" d="M574 230Q549 109 553 6L547 2Q411 12 315 12Q302 12 288 12Q245 -38 185 -42Q116 -47 63 9T4 148Q-2 231 42 294T157 362Q176 363 195 359Q223 377 283 404Q335 428 354 443Q384 467 384 502Q384 531
367 574Q348 625 324 625Q293 625 293 457Q293 457 289 449Q259 449 197 445T104 441L88 464Q88 592 130 647Q180 712 303 712Q415 712 483 658Q558 598 558 489Q558 409 508 369Q486 351 405 320Q337 294 314 260Q330 228 335 191Q365 195 454 214Q529 230 574
230ZM289 168Q285 219 257 256T189 302L195 174L284 114Q291 140 289 168ZM145 171L139 300Q98 288 74 246T52 151Q54 126 63 102L145 171ZM264 68L198 112L203 19Q240 31 264 68ZM153 17L148 108L88 58Q116 25 153 17Z" />
<glyph unicode="3" glyph-name="three" horiz-adv-x="527" d="M499 199Q499 101 406 46Q328 0 223 0Q93 0 42 75Q-1 136 -1 272Q-1 272 4 311H14Q53 311 104 306Q114 319 125 331Q104 332 100 336Q96 400 84 459L161 457Q215 455 257 482Q305 512 305 563Q305
595 287 619Q268 647 238 647Q203 647 203 571Q203 557 204 536T206 511L205 502Q207 502 107 504Q49 505 10 502Q-1 533 -1 533Q-1 759 242 759Q338 759 398 703T459 551Q459 511 405 453T310 391L342 392Q415 394 459 331Q499 275 499 199ZM334 219Q331 259 306
288T246 323L249 234L332 186Q336 203 334 219ZM313 140L250 176L253 97Q290 107 313 140ZM203 227L200 321Q162 311 139 276T119 199Q120 183 125 169L203 227ZM208 95L205 168L150 127Q174 101 208 95Z" />
<glyph unicode="4" glyph-name="four" horiz-adv-x="638" d="M611 104Q600 92 535 98Q535 24 539 0L533 -4Q477 0 369 0L381 107Q350 107 262 109Q188 111 143 110Q78 109 25 102L21 104Q21 202 2 293L6 305Q300 513 395 725L405 727Q431 727 481 715T557 703Q557
642 545 519T533 334L600 330V282Q600 168 611 104ZM446 318Q446 359 424 392T366 437L357 352L399 315V315Q399 314 441 277Q446 297 446 318ZM316 442Q277 436 248 407T211 334Q207 313 210 293L305 342L316 442ZM417 231L350 291L339 185Q386 191 417 231ZM299
282L225 244Q247 203 289 189L299 282Z" />
<glyph unicode="5" glyph-name="five" horiz-adv-x="524" d="M501 271Q501 152 424 67Q345 -21 228 -21Q1 -21 1 245Q1 278 5 286Q12 299 40 299L52 300Q59 317 69 333Q40 339 36 365Q28 412 28 483Q28 503 29 544T30 605Q30 655 26 691Q95 691 246 699Q392 707
466 707Q470 693 470 693Q470 668 462 566L456 561Q394 564 349 564Q267 564 185 551Q167 531 167 493Q167 465 181 457Q242 464 294 464Q398 464 448 420Q501 373 501 271ZM395 241Q391 290 357 325T273 369L277 259L392 200Q397 220 395 241ZM366 143L280 188L283
89Q335 102 366 143ZM215 251L211 367Q159 354 127 311T100 215Q101 196 108 179L215 251ZM221 87L218 178L142 127Q175 95 221 87Z" />
<glyph unicode="6" glyph-name="six" horiz-adv-x="499" d="M479 208Q479 100 391 35Q311 -24 199 -24Q74 -24 29 125Q2 213 2 377Q2 510 52 604Q115 721 236 721Q328 721 389 675Q457 624 455 535L454 488L448 480L372 482Q352 483 314 478T257 473L251 475L252
524Q255 602 212 612L198 607Q144 538 144 424Q144 394 147 371L155 369Q208 431 297 431Q390 431 438 364Q479 305 479 208ZM376 203Q376 255 346 293T270 339L276 219L365 148Q376 174 376 203ZM223 214L218 334Q180 321 156 285T132 203Q132 179 139 157L223
214ZM337 102L279 149L283 68Q314 77 337 102ZM230 67L226 152L164 110Q191 76 230 67Z" />
<glyph unicode="7" glyph-name="seven" horiz-adv-x="539" d="M535 703Q533 628 509 572Q481 513 453 455Q422 381 396 305Q397 294 397 283Q397 196 345 136Q330 77 318 16Q305 10 188 4Q83 -1 46 0H10Q65 75 107 138Q58 198 58 283Q58 368 107 428T227 488Q263
488 295 471Q313 511 328 551L325 559L313 561Q247 561 160 548Q84 536 8 523L4 531Q4 565 12 617Q24 696 25 703L33 709Q143 701 253 701Q405 701 529 712L535 703ZM347 283Q347 338 318 379T243 428L249 332L298 298V298Q298 298 346 265Q347 274 347 283ZM331
209L254 263L261 143Q307 159 331 209ZM200 310L193 423Q156 409 132 371T107 283Q107 259 113 237L200 310ZM211 138L204 243L137 186Q167 145 211 138Z" />
<glyph unicode="8" glyph-name="eight" horiz-adv-x="524" d="M500 268Q500 143 417 81Q344 27 214 27Q7 27 7 215Q7 271 21 318Q28 341 79 398Q133 459 150 453Q31 507 31 586Q31 677 116 755Q200 830 292 830Q376 830 432 756Q484 689 484 602Q484 537 451 494Q432
469 408 460T357 443L352 440L357 436Q369 431 413 425Q446 421 465 402Q500 367 500 268ZM365 619Q369 667 351 706T300 761L285 636L345 551Q361 582 365 619ZM254 766Q219 760 192 724T161 636Q158 606 165 577L239 638L254 766ZM316 512L277 568L268 488Q294
492 316 512ZM232 572L183 533Q199 507 223 496L232 572ZM369 254Q372 299 347 333T284 373L283 268L358 206Q368 229 369 254ZM238 368Q205 357 183 326T158 254Q157 234 162 214L237 264L238 368ZM331 167L283 207V138Q310 145 331 167ZM237 210L181 174Q203
145 237 137V210Z" />
<glyph unicode="9" glyph-name="nine" horiz-adv-x="528" d="M499 300Q499 180 445 85Q381 -30 270 -30Q173 -30 109 13Q35 62 38 154L41 213L44 217Q98 214 141 214Q189 214 238 223Q243 217 244 206Q245 199 244 186Q243 170 243 168Q243 80 281 80L296 82Q335
122 347 195Q353 234 353 322L345 326Q320 290 286 278Q260 269 209 269Q102 269 58 332Q22 384 22 497Q22 611 90 669Q154 723 270 723Q412 723 465 571Q499 476 499 300ZM384 507Q385 571 349 616T258 661Q205 660 167 613T128 502Q126 437 163 392T253 348Q306
349 344 395T384 507ZM347 506Q346 486 341 467L275 514V614Q306 608 326 578T347 506ZM236 613L237 513L171 461Q165 481 165 502Q166 542 186 572T236 613ZM323 432Q303 404 275 396V466L323 432ZM237 465V394Q208 400 188 427L237 465Z" />
<glyph unicode=":" glyph-name="colon" horiz-adv-x="309" d="M287 597Q287 536 250 498T151 459Q107 459 76 482T45 549Q45 605 54 631Q68 670 111 689Q179 720 185 720Q231 720 261 680Q287 644 287 597ZM213 611Q213 674 167 674Q136 674 115 644T94 582Q94
552 110 530T154 508Q213 508 213 611ZM287 147Q287 86 250 48T151 9Q107 9 76 32T45 99Q45 155 54 181Q68 220 111 239Q179 270 185 270Q231 270 261 230Q287 194 287 147ZM213 161Q213 224 167 224Q136 224 115 194T94 132Q94 102 110 80T154 58Q213 58 213 161Z"
/>
<glyph unicode=";" glyph-name="semicolon" horiz-adv-x="301" d="M287 597Q287 536 250 498T151 459Q107 459 76 482T45 549Q45 605 54 631Q68 670 111 689Q179 720 185 720Q231 720 261 680Q287 644 287 597ZM213 611Q213 674 167 674Q136 674 115 644T94 582Q94
552 110 530T154 508Q213 508 213 611ZM285 232Q247 183 194 60T133 -74Q94 -54 10 -25L6 -12Q68 138 82 266L94 271Q154 240 279 240L285 232Z" />
<glyph unicode="&lt;" glyph-name="less" horiz-adv-x="586" d="M52 132L115 53L123 -20L218 -54Q242 -56 268 -56Q378 -56 437 -28L443 43Q470 68 495 142T552 251L553 363L492 412H489L461 503L406 528Q432 731 432 804Q432 828 411 850T365 872Q322 872 275
829Q266 754 243 605Q239 640 225 691Q214 733 202 775Q196 802 179 823Q159 847 134 847Q90 847 51 786Q63 700 75 614Q89 513 89 442Q89 427 26 253L52 132ZM230 466H258Q287 623 311 811Q338 835 360 835Q371 835 383 824T394 801Q381 630 368 532Q351 531 344
532Q296 491 287 482Q274 468 243 421Q242 420 241 417Q238 419 235 419Q172 411 171 412L145 404Q141 403 142 402H138L115 395Q127 438 127 438Q127 509 114 608Q102 692 91 777Q110 808 130 808Q155 808 166 764Q179 717 201 623Q201 623 230 466ZM357 496L382
497L430 475L450 410Q430 409 392 411Q367 390 322 343L291 330L289 331L290 342Q291 374 274 402Q275 415 309 452Q340 486 357 496ZM230 382V381L242 380Q254 363 254 350Q254 332 246 318Q185 292 181 292L166 253Q171 248 229 186L260 90L281 83Q272 137 260
200L208 255L210 262Q270 287 273 287L276 293L281 289H282L276 282L273 204L329 169L382 204Q402 231 434 286L438 287L464 303L455 320Q439 317 419 304L412 309L356 229L328 210L309 222L311 270L346 316L352 318L351 322Q360 339 405 376L478 375L514 345V262Q486
232 460 156Q435 85 406 57L401 1Q353 -23 224 -16L158 8L151 68L87 149L66 250Q80 296 106 353Q184 381 230 382Z" />
<glyph unicode="=" glyph-name="equal" horiz-adv-x="1297" d="M1122 536Q1122 501 1108 469Q1092 430 1062 426Q1107 470 1107 521Q1107 528 1104 540T1101 557Q1101 564 1108 564Q1122 564 1122 536ZM1289 -57L1280 -68L1281 -82Q1269 -79 1267 -72Q1265 -69
1266 -54Q1263 -52 1259 -48Q1259 -38 1265 -38H1279Q1281 -38 1289 -45V-57ZM1129 75Q1129 69 1115 68Q1109 69 1109 74Q1109 82 1114 87Q1123 87 1126 83T1129 75ZM1100 68Q1097 60 1092 60Q1083 60 1083 76Q1083 84 1090 87Q1100 87 1100 74V68ZM1122 -12Q1122
-19 1116 -22Q1107 -21 1099 -13Q1100 -10 1102 -6Q1090 10 1090 19Q1090 27 1096 34Q1096 37 1095 42T1093 50L1097 56Q1108 53 1109 49Q1110 49 1110 36Q1110 27 1116 12T1122 -12ZM1292 60Q1292 44 1278 44Q1281 44 1257 61T1213 79H1209L1208 71H1203Q1201
82 1190 100T1168 118L1162 115Q1152 97 1153 56Q1153 12 1145 -6L1147 -13L1149 -14Q1152 -14 1158 -11T1180 -8Q1190 -8 1190 7Q1190 13 1184 16Q1177 11 1172 6Q1161 6 1161 12Q1161 53 1177 91Q1183 80 1183 51Q1183 32 1191 32Q1196 32 1206 33T1221 35T1229
46T1237 57Q1244 57 1246 44T1260 28Q1260 21 1255 13T1242 5Q1238 5 1234 11T1229 19L1223 20L1216 14Q1213 7 1201 -1Q1203 -21 1216 -21Q1222 -21 1232 -13T1248 -5Q1254 -5 1260 -11V-22H1248Q1228 -34 1225 -34Q1221 -34 1215 -32Q1208 -35 1208 -40Q1208
-45 1215 -48Q1220 -48 1228 -41Q1256 -48 1256 -62Q1252 -73 1238 -73Q1232 -73 1232 -75Q1232 -89 1257 -89Q1266 -89 1287 -103Q1266 -115 1240 -115Q1222 -115 1202 -109L1198 -103Q1203 -98 1210 -87L1206 -85Q1199 -90 1183 -98V-103Q1183 -106 1195 -112H1154V-99Q1155
-78 1139 -78Q1133 -78 1133 -86Q1134 -92 1135 -99L1124 -98Q1117 -98 1115 -101Q1112 -105 1115 -112H1082Q1100 -101 1099 -87Q1096 -84 1092 -84Q1087 -84 1079 -89T1065 -95Q1055 -95 1055 -83Q1055 -77 1072 -73T1092 -63Q1103 -52 1120 -27Q1135 -27 1135
-33Q1135 -42 1122 -53T1109 -68L1116 -73Q1119 -72 1128 -66Q1134 -62 1141 -62Q1147 -62 1155 -73T1171 -84Q1184 -84 1188 -74Q1164 -69 1140 -45Q1143 -40 1147 -31Q1137 -15 1137 3Q1137 13 1141 33T1145 63Q1145 156 1116 156Q1113 156 1107 154T1097 152Q1090
152 1088 158Q1087 163 1088 172Q1089 184 1089 184Q1089 189 1086 190Q1076 202 1051 220V217Q1050 201 1061 171T1072 127Q1072 74 1069 50Q1074 42 1079 37Q1079 31 1076 29T1068 26L1057 27Q1057 39 1058 63T1059 100Q1059 171 1028 206Q1012 182 981 145Q945
103 929 94Q928 88 917 76T906 56Q906 53 907 50Q933 64 960 103Q981 134 1002 165Q993 128 950 72Q904 12 872 12Q868 12 861 15T851 20Q847 18 847 8T840 -5T820 -15Q746 -37 719 -36Q712 -44 661 -56Q614 -67 597 -67Q592 -67 587 -60L576 -68Q601 -86 630 -86Q659
-86 706 -65Q775 -34 781 -32Q765 -54 720 -73T645 -92Q639 -102 624 -102Q614 -102 594 -107T563 -112Q544 -112 518 -88T479 -64Q472 -64 470 -80Q467 -102 467 -104L462 -105Q458 -102 451 -94Q451 -84 456 -66T462 -37Q462 -26 455 -12T437 2Q422 -2 403 -51Q380
-111 374 -119Q379 -67 413 3L410 6Q403 0 399 -11Q392 -28 390 -31T374 -45T359 -68L363 -69Q365 -68 366 -68Q373 -68 373 -72L370 -77Q367 -79 361 -84L359 -75Q327 -83 327 -99Q327 -108 353 -107V-112L318 -113Q268 -114 268 -91Q268 -84 273 -76L270 -74Q262
-78 247 -96T219 -115Q202 -115 191 -93T172 -71Q168 -71 168 -76Q168 -95 185 -112Q140 -112 37 -114V891H360Q352 865 344 838Q330 795 324 795Q319 795 309 799Q295 793 295 777Q295 765 311 724T328 666Q328 623 356 623Q355 602 363 602Q379 602 411 608T453
621Q447 626 441 630T434 645Q433 645 465 645Q474 645 497 638Q514 632 531 627Q541 624 560 604Q576 588 611 588Q643 588 701 623T789 658Q790 657 796 637Q858 629 860 629L875 630Q892 643 919 643Q922 643 934 638T954 633Q995 633 995 684Q995 740 960 790Q956
795 959 807Q945 814 937 829T921 859Q919 861 914 863L907 870Q907 877 903 891H1119Q1116 885 1098 781T1078 668L1082 658Q1081 658 1101 658Q1130 658 1140 598Q1129 612 1120 612Q1114 612 1102 608T1084 604Q1086 615 1097 621T1109 632Q1109 645 1099 645Q1081
645 1066 636Q1047 626 1047 609Q1047 588 1067 593L1055 568L1058 561Q1074 552 1074 547Q1074 541 1068 537T1055 529Q1069 525 1069 516Q1069 511 1056 502T1043 481Q1043 464 1053 464Q1059 464 1069 474Q1077 471 1076 466L1075 462Q1052 449 1052 422Q1052
415 1054 399T1056 376Q1056 365 1059 365Q1076 365 1104 430Q1128 487 1133 517L1138 516Q1132 462 1105 412Q1097 397 1059 341Q1035 307 1035 287Q1035 260 1098 204Q1142 168 1186 132Q1204 117 1235 99Q1281 73 1286 70T1292 60ZM417 639Q412 639 403 637T389
635Q386 635 378 638L384 645L385 649Q391 647 395 648Q400 650 403 650Q409 650 417 639ZM1033 132Q1033 33 904 -67L901 -63Q934 -32 968 0Q1006 40 1006 78Q1006 84 1004 94T1001 110Q1006 115 1015 126Q1014 133 1014 139Q1014 156 1025 178Q1033 156 1033
132ZM979 50Q977 44 973 41Q964 41 959 46Q959 57 967 57Q979 57 979 50ZM1079 -26Q1072 -48 1069 -51Q1058 -59 1046 -66Q1046 -46 1039 -46Q1030 -46 1024 -58Q1017 -74 1012 -77L1015 -80L1024 -83Q1027 -79 1035 -73Q1041 -73 1041 -87Q1034 -92 1026 -103Q1030
-107 1038 -107V-112Q1014 -112 926 -113Q960 -85 993 -57Q1030 -23 1043 13Q1049 19 1053 19Q1056 19 1058 17Q1057 19 1057 -16L1058 -20L1060 -19Q1062 -19 1066 -21T1073 -24Q1074 -23 1076 -23Q1080 -23 1079 -26ZM895 586Q895 613 853 621Q822 623 791 625Q788
626 783 629T774 632Q756 632 720 613Q681 593 681 577Q681 570 686 560T691 547Q691 543 687 538Q693 534 721 503Q735 486 769 486Q800 486 835 496Q883 509 883 531Q883 549 865 549Q860 549 850 536Q843 528 836 519Q834 524 827 525T819 530Q819 533 829 547T840
569Q840 575 834 579Q818 544 800 544Q778 544 765 579Q749 574 749 561Q749 561 752 553Q753 552 767 546Q777 541 777 534Q777 521 767 521Q757 521 752 525H749Q742 519 731 511Q740 538 740 537Q740 543 735 545Q719 553 715 556T701 573Q757 610 784 610Q789
610 802 607T821 604Q844 607 840 607Q854 607 884 570L894 573Q895 581 895 586ZM1028 425Q1028 437 1021 453T1014 472Q1014 475 1018 480T1022 488Q1020 494 1015 505Q1015 511 1017 522T1019 539Q1019 560 1009 585Q997 615 980 615Q965 610 945 604Q950 606
917 606Q909 606 909 593Q909 586 915 575T922 556Q922 551 919 542T916 530Q909 490 879 476Q863 468 809 462Q805 461 802 455T791 448Q782 448 761 454Q737 461 729 462T705 475T683 489Q665 490 665 477Q665 469 670 463T676 455Q676 451 672 447Q683 412 684
410Q684 405 684 371Q684 350 700 350Q719 350 719 367Q719 374 711 386T702 409L703 417Q735 385 735 378Q735 364 729 351Q722 335 711 335Q708 335 700 338T686 341Q670 341 653 327T628 312Q624 312 618 313T607 315Q607 315 601 314Q610 305 610 294Q610 286
603 271T595 250Q595 235 617 235Q633 235 643 243Q643 247 639 258T634 276Q634 291 645 302T673 314Q680 314 683 307T690 300L696 305L697 308L705 314Q715 311 729 300Q748 284 751 282L756 284Q768 298 778 296Q780 297 788 307T800 317Q814 317 832 290T850
248Q850 222 823 222Q823 215 833 205T843 190Q843 185 833 182T821 177Q817 169 817 163Q817 146 830 146Q840 146 860 164T881 192Q881 189 863 224Q869 223 873 223Q881 223 889 233T901 244Q904 244 907 243T913 241Q920 241 921 251Q922 259 921 273Q919 289
919 289Q919 295 922 304Q934 297 934 281T942 264Q966 264 980 291Q973 292 965 294T957 302Q957 302 960 309Q962 311 963 311Q964 311 972 307Q981 313 981 323Q981 343 956 343Q956 356 965 356Q969 356 976 353T988 350Q1002 350 1016 381Q1028 409 1028 425ZM945
224Q944 225 941 225H939L937 221L942 216L945 224ZM1198 -28Q1198 -28 1196 -21Q1194 -18 1191 -18Q1180 -18 1180 -33Q1180 -41 1188 -41Q1198 -41 1198 -28ZM914 228L907 232Q900 227 900 221L904 213Q911 216 911 221L914 228ZM933 203L932 208L928 207Q926
203 923 196L930 195Q933 197 933 203ZM569 548Q569 578 560 587Q558 588 555 583Q564 574 564 541L567 539Q569 543 569 548ZM924 165L922 169Q918 168 916 162L919 160L924 165ZM901 174L898 180H893Q892 178 892 175Q892 173 893 171L901 174ZM682 380Q682 389
664 430T646 492Q648 525 648 520Q648 577 617 577Q581 577 581 526Q581 519 582 506Q582 492 582 487Q582 480 580 467T578 446Q578 444 580 440T582 432Q567 403 545 379Q537 371 537 365Q537 352 546 352Q547 352 551 361T561 370Q564 370 582 351T616 329Q619
326 624 326Q633 326 657 348T682 380ZM787 254Q765 265 763 265Q759 265 759 255L767 251Q773 251 784 248L787 254ZM448 594Q448 607 428 607Q375 607 374 582L379 574Q382 572 384 572Q388 572 404 584Q412 590 419 589Q439 587 435 587Q448 587 448 594ZM546
538Q546 547 541 554T526 562Q526 531 495 531Q497 535 508 563T519 594Q519 599 512 605T498 612Q480 612 480 597Q480 593 490 580T503 564Q493 560 484 543T457 526Q441 526 435 538T424 563L414 560V558Q414 549 425 538T436 520Q436 512 420 509Q400 507 397
505V494Q394 493 391 493Q378 493 376 507T372 534Q371 541 368 541Q358 541 358 509Q358 479 387 471Q399 467 442 467Q507 467 546 535V538ZM890 113L882 114Q874 114 874 103L878 101Q890 101 890 113ZM709 253Q708 259 705 267H702Q695 259 695 251L699 244L701
243Q704 243 709 253ZM671 254Q671 261 666 270T655 279Q648 279 648 266Q648 254 666 247L671 250V254ZM583 274H582Q580 273 579 270L581 269L583 274ZM817 196Q814 209 803 219T778 229Q737 229 657 222T535 215Q531 215 523 218T510 222Q504 215 496 208Q491
208 486 211Q482 210 478 202T472 193L470 194Q446 199 446 259Q446 265 448 271Q454 273 462 278Q472 290 481 302T509 314Q520 314 520 307Q516 298 511 295Q495 290 495 276Q498 271 502 271H505Q517 285 529 298Q547 318 554 318Q557 318 564 316T575 314Q580
314 580 323Q580 340 562 340Q558 340 552 338T542 335Q520 335 520 364Q520 396 556 421Q564 432 564 467Q564 470 561 495Q560 511 562 522L558 524Q552 520 543 496T520 459Q498 440 456 440Q441 440 414 449T381 459Q377 459 373 456L366 455Q327 474 313 507H310V492Q309
471 313 430T317 370Q317 361 329 360T342 354L337 344Q324 337 324 325Q324 316 333 298T348 280Q353 280 359 286T367 293Q371 293 373 291Q392 267 422 212Q406 207 406 188Q406 171 415 159T434 136L443 133Q449 136 449 142L448 146Q445 149 434 148V158Q438
164 443 164Q441 164 457 154Q462 157 477 179Q488 195 503 195Q509 195 509 181Q486 171 486 151Q486 151 488 141Q494 136 498 136Q502 136 504 138Q501 148 501 148V157Q519 165 520 166Q528 172 528 185Q543 185 543 178Q531 150 509 91L511 84L518 85Q522
98 519 105Q535 105 545 116T564 140Q583 139 592 152T609 165Q613 165 621 161T633 156Q655 156 667 163T691 178Q697 176 703 165Q711 151 714 148Q710 148 704 150T694 153L689 150Q683 129 669 91Q668 89 651 84V77Q649 63 667 33Q670 35 674 35Q685 35 689
24L695 27Q697 30 708 49T720 69Q720 80 686 87Q688 90 691 111Q694 126 706 126Q716 126 718 110Q721 90 724 87L735 84Q742 88 744 92T745 104Q744 114 744 116Q744 122 754 122Q760 119 761 108Q800 110 800 170Q800 180 799 188Q800 188 803 187T808 185Q809
185 817 196ZM570 289L566 291Q559 288 556 276T550 261L553 258Q561 267 570 289ZM758 74Q758 84 748 84Q738 84 738 70Q738 56 746 56Q754 56 754 68L758 74ZM771 31L769 34L767 35Q765 35 751 27L755 21L762 24Q766 29 771 31ZM284 536Q284 544 272 563T256
583Q245 583 239 571T233 547Q233 530 272 452L278 448V457Q278 460 274 470T269 486Q269 488 276 506T284 536ZM746 37L742 44L739 45Q727 45 727 32L728 30Q728 27 731 27Q746 27 746 37ZM728 3Q728 8 718 13Q710 13 710 1Q710 -4 718 -4L725 -3Q728 0 728 3ZM604
125Q604 125 602 132Q600 133 598 133Q582 133 582 117Q582 114 584 112H590Q604 112 604 125ZM656 127Q656 127 654 136H647Q628 137 624 125Q623 123 623 96Q617 104 604 111L599 108Q598 105 598 101Q598 87 611 78Q604 72 599 64Q607 24 621 24L623 25L625
29Q618 38 618 48Q618 72 637 96T656 127ZM653 22L649 32L642 37Q630 33 630 12Q630 7 638 4Q646 9 653 22ZM571 95Q571 95 570 101L565 103Q563 102 554 97V89Q557 82 562 82Q566 82 570 87L571 95ZM580 71L578 75Q564 73 564 61Q564 53 576 53L580 55V71ZM375
262L372 269L366 274Q355 272 355 257Q355 246 366 246Q375 246 375 262ZM398 228L394 236H392Q381 236 381 222Q381 211 389 211Q398 211 398 228ZM539 84Q539 86 537 89Q518 83 518 61Q518 36 533 36Q539 36 538 54Q537 64 535 75Q539 84 539 84ZM575 28Q575
30 574 31Q554 30 554 17V16L560 14Q575 26 575 28ZM570 -89Q570 -79 550 -66T521 -52Q511 -52 511 -61Q511 -74 528 -82Q542 -88 556 -94H564L570 -92V-89ZM369 54L365 62L361 63Q353 63 345 51T336 30L337 27Q337 27 355 39Q369 48 369 54ZM373 15Q373 17 372
18Q370 24 366 24Q353 24 346 6L348 -3Q351 -4 362 3T373 15ZM328 45L324 55H322Q318 55 310 39Q311 28 318 28Q328 33 328 45ZM347 -26L344 -18Q339 -14 334 -14Q319 -14 301 -45T282 -93Q282 -97 285 -97Q286 -97 294 -94T305 -90Q306 -78 320 -60Q321 -41 330
-38Q343 -35 347 -26ZM323 12L315 16Q264 16 234 -74L238 -76Q247 -71 260 -53T286 -27Q290 -21 286 -9L294 -10Q317 -10 323 12ZM237 17Q237 27 226 27L219 24Q221 6 227 6Q237 6 237 17ZM289 -58L288 -56L283 -53Q276 -53 276 -64L280 -66Q289 -61 289 -58ZM207
-11Q207 -5 193 -5L185 -10L184 -13Q184 -24 196 -24Q207 -16 207 -11ZM232 -41Q230 -36 225 -36Q222 -36 216 -39T210 -44Q210 -46 223 -49Q232 -49 232 -41ZM222 -90Q219 -85 210 -85L206 -87Q207 -97 214 -97Q222 -97 222 -90ZM128 -87Q128 -74 117 -74H114Q108
-77 108 -85Q108 -98 119 -98Q128 -98 128 -87ZM687 61Q687 51 677 51Q665 51 665 66Q665 77 674 77Q687 77 687 61ZM356 316Q356 316 355 310L350 304Q344 310 344 320T341 334L344 337Q356 325 356 316Z" />
<glyph unicode="&gt;" glyph-name="greater" horiz-adv-x="586" d="M531 132L468 53L459 -20L364 -54Q341 -56 315 -56Q205 -56 146 -28L140 43Q113 68 87 142T31 251L30 363L90 412H93L122 503L177 528Q150 731 150 804Q150 828 171 850T217 872Q261 872 307
829Q316 754 340 605Q344 640 357 691Q369 733 380 775Q387 802 405 824T448 847Q493 847 531 786Q519 700 507 614Q494 513 494 442Q494 427 556 253L531 132ZM353 466H325Q296 623 271 811Q245 835 223 835Q211 835 200 824T189 801Q202 630 215 532Q231 531
239 532Q287 491 296 482Q308 468 339 421Q340 420 341 417Q345 419 348 419Q411 411 412 412L438 404Q442 403 441 402H445L468 395Q456 438 456 438Q456 509 468 608Q480 692 492 777Q472 808 453 808Q428 808 416 764Q404 717 382 623Q382 623 353 466ZM226
496L201 497L153 475L132 410Q152 409 191 411Q216 390 260 343L292 330L293 331V342Q291 374 308 402Q308 415 273 452Q242 486 226 496ZM353 382V381L340 380Q329 363 329 350Q329 332 337 318Q398 292 401 292L417 253Q412 248 353 186L323 90L301 83Q310 137
323 200L375 255L372 262Q313 287 310 287L306 293L302 289H301L306 282L310 204L254 169L201 204Q181 231 149 286L144 287L119 303L128 320Q143 317 163 304L171 309L226 229L255 210L273 222L271 270L237 316L231 318L232 322Q223 339 177 376L104 375L68 345L69
262Q97 232 122 156Q147 85 177 57L181 1Q230 -23 358 -16L424 8L431 68L495 149L517 250Q502 296 476 353Q399 381 353 382Z" />
<glyph unicode="?" glyph-name="question" horiz-adv-x="429" d="M416 524Q416 455 373 417Q366 411 290 369Q245 343 242 305Q243 281 244 233V228Q334 192 342 97Q348 33 305 -16T196 -72Q130 -78 79 -37T22 69Q16 137 64 188Q61 266 61 259Q61 326 117 374Q169
409 221 444Q277 483 277 526Q277 553 263 581Q247 614 223 614Q182 614 182 519Q182 506 184 473L4 463Q0 488 0 488Q0 574 40 645Q89 729 168 729Q248 729 329 667Q416 602 416 524ZM296 93Q292 131 266 158T202 192L205 107L294 62Q297 77 296 93ZM274 18L207
52L210 -23Q249 -14 274 18ZM157 101L154 190Q114 180 90 147T69 73Q70 59 75 45L157 101ZM162 -25L160 44L101 5Q127 -19 162 -25Z" />
<glyph unicode="@" glyph-name="at" horiz-adv-x="765" d="M284 122Q212 170 201 262Q195 285 195 309Q195 377 231 429Q272 488 336 488Q342 488 382 479Q390 478 398 477L400 517L525 498Q529 423 530 348Q538 318 538 288V286Q567 325 567 437Q567 577 417
577Q293 577 225 497Q161 422 161 295Q161 166 288 116Q286 119 284 122ZM369 97Q349 97 330 102Q325 102 321 102Q395 82 498 83L400 -67L378 -68Q214 -70 117 47Q25 156 25 324Q25 499 148 599Q263 692 442 692Q579 692 655 633Q740 568 740 434Q740 339 691
246Q633 137 546 137Q514 137 490 154Q440 97 369 97ZM388 420L392 316L479 260Q483 276 483 293Q483 341 456 376T388 420ZM395 250L399 169Q433 179 456 211L395 250ZM340 417Q303 406 279 372T255 293Q255 274 260 256L344 318L340 417ZM347 254L284 208Q311
173 351 166L347 254Z" />
<glyph unicode="A" glyph-name="A" horiz-adv-x="528" d="M499 424Q499 417 489 33Q447 20 403 11Q364 -14 318 -14Q290 -14 264 -4H253Q145 -5 89 17Q3 51 3 142Q3 232 77 289Q139 337 237 352Q273 373 315 374V402Q316 445 301 475Q282 512 241 512Q215 512
199 489T183 438Q183 409 200 357Q132 365 22 365L21 440Q17 645 233 645Q345 645 417 591Q499 532 499 424ZM442 180Q442 229 416 266T349 315L344 190L425 112Q442 144 442 180ZM293 316Q251 306 223 268T194 180Q194 150 206 122L289 188L293 316ZM395 71L342
122L339 43Q370 49 395 71ZM286 123L232 80Q254 56 283 47L286 123Z" />
<glyph unicode="B" glyph-name="B" horiz-adv-x="526" d="M503 199Q503 77 391 29Q315 -3 172 -3Q148 -3 87 -1Q33 1 2 0L8 646Q58 652 107 657Q167 664 207 664Q324 664 386 642Q484 607 484 512Q484 465 456 418T387 350Q441 343 472 300T503 199ZM384 204Q387
257 353 297T267 336Q314 354 341 395T364 485Q358 544 310 582T199 616Q135 610 95 564T59 458Q64 398 112 360T224 327H226Q159 296 154 216Q152 164 183 125T262 83Q310 81 345 116T384 204ZM319 481Q321 452 308 426L236 487L230 573Q266 567 291 542T319 481ZM279
391Q263 378 242 372L239 426L279 391ZM186 486L113 430Q106 445 104 462Q101 499 123 529T181 570L186 486ZM193 369Q161 374 137 396L189 436L193 369ZM267 336Q247 329 226 327Q246 336 267 336ZM350 206Q350 190 344 175L286 217L289 298Q317 291 334 265T350
206ZM255 299L252 218L192 181Q187 197 188 214Q189 246 208 269T255 299ZM327 147Q309 126 284 121L285 178L327 147ZM251 180L249 122Q223 129 206 152L251 180Z" />
<glyph unicode="C" glyph-name="C" horiz-adv-x="468" d="M449 262Q449 144 419 84Q414 21 372 -23T267 -67Q185 -67 136 6Q5 61 5 258Q5 386 57 504Q123 653 234 653Q308 653 360 588Q409 527 409 452Q409 421 404 389L332 391Q308 392 242 381Q250 424 250 449Q250
510 211 510Q155 510 155 341Q155 279 165 240Q195 265 233 272Q275 279 316 262H449ZM373 84Q375 103 372 123Q365 163 337 191T273 224L283 130L373 84ZM359 39L289 74L298 -13Q337 0 359 39ZM235 140L227 219Q193 208 172 177T151 107Q151 88 156 69L196 105V105Q196
105 235 140ZM252 -17L241 82L178 26Q207 -11 252 -17Z" />
<glyph unicode="D" glyph-name="D" horiz-adv-x="551" d="M527 403Q527 263 458 151Q378 22 248 14L6 0Q20 182 20 682V684Q196 687 205 687Q368 687 443 628Q527 562 527 403ZM273 208Q351 208 406 268T461 413Q461 498 406 558T273 618Q195 618 140 558T85 413Q85
328 140 268T273 208ZM255 558L248 462L194 428V428Q194 428 141 395Q139 404 139 413Q139 468 172 509T255 558ZM243 393L235 273Q184 289 157 339L243 393ZM311 553Q352 539 379 501T406 413Q406 389 399 367L303 440L311 553ZM298 373L373 316Q340 275 291 268L298
373Z" />
<glyph unicode="E" glyph-name="E" horiz-adv-x="512" d="M497 244Q497 137 438 56Q372 -34 269 -34Q150 -34 75 57Q5 141 5 263Q5 349 32 432Q64 527 120 582Q166 653 248 653Q295 653 335 626Q389 600 418 537Q445 481 445 411Q445 364 438 314Q361 314 286
308H283Q269 305 253 305Q202 301 151 293Q151 241 167 202Q189 149 233 149Q281 149 295 201Q302 227 300 291Q337 288 375 288Q436 288 497 297V244ZM365 459Q367 479 364 499Q357 540 329 568T263 602L274 506L365 459ZM350 413L280 450L289 361Q329 374 350
413ZM225 516L216 598Q181 586 160 555T139 483Q139 464 144 445L184 481V481Q184 481 225 516ZM242 356L231 458L167 401Q196 363 242 356Z" />
<glyph unicode="F" glyph-name="F" horiz-adv-x="427" d="M414 242L342 243Q276 244 187 230Q178 221 167 215Q158 122 162 6L6 -2Q14 131 16 265Q0 297 0 335Q0 373 17 405Q16 525 10 645Q71 638 133 638Q236 638 383 658L385 518Q341 523 295 523Q223 523 152
510V462Q174 454 191 435H237Q307 434 408 451Q405 346 414 242ZM196 335Q196 370 177 396T128 429L131 352L194 310Q196 322 196 335ZM97 353L94 427Q67 419 50 394T33 335Q33 321 37 308L97 353ZM177 274L133 303L136 243Q161 251 177 274ZM102 241L99 306L54
272Q73 246 102 241Z" />
<glyph unicode="G" glyph-name="G" horiz-adv-x="496" d="M223 162Q223 185 227 206Q203 204 180 199Q180 236 174 281Q215 281 264 286Q293 322 332 326Q369 331 399 304L473 316Q468 281 469 240L442 234Q448 210 449 184Q451 132 429 88T371 25Q304 -38 193
-38Q88 -38 41 67Q7 143 7 263Q7 413 46 494Q100 608 233 608Q332 608 372 535Q402 480 402 371L227 340V338Q219 366 212 393Q199 426 175 426Q140 426 140 359Q140 156 203 156Q217 156 223 162ZM354 280L355 188L406 121Q417 149 416 180Q415 218 398 246T354
280ZM257 162Q257 144 262 127L318 187L317 278Q290 266 273 234T257 162ZM355 122L356 64Q371 71 384 85L355 122ZM279 91Q295 67 319 61L318 133L279 91Z" />
<glyph unicode="H" glyph-name="H" horiz-adv-x="594" d="M322 163Q283 196 262 246Q243 258 222 258Q179 258 179 121Q179 69 186 -4Q169 -4 105 -2Q55 -1 24 -2Q40 172 40 264Q40 288 5 321Q-23 344 -50 367L44 393L47 501Q48 546 28 719Q89 699 180 701L163
422Q220 441 262 456Q272 479 287 498L257 697Q396 683 491 691L495 522Q584 453 584 326Q584 211 507 153Q510 78 514 8Q467 4 372 -2Q359 52 322 163ZM423 492L437 363L524 273Q537 312 531 355Q524 408 494 446T423 492ZM305 276L381 361L368 486Q333 472 312
435T291 350Q291 311 305 276ZM448 272L456 193Q479 202 496 222L448 272ZM336 226Q364 195 401 187L390 286L336 226Z" />
<glyph unicode="I" glyph-name="I" horiz-adv-x="285" d="M248 0H55L43 537L226 533Q234 355 248 0ZM124 569Q185 569 227 617T270 732Q270 800 228 848T124 896Q63 896 20 848T-23 732Q-23 665 20 617T124 569ZM110 848L105 746L29 686Q20 708 20 732Q20 777
46 809T110 848ZM155 843Q187 832 207 802T227 732Q227 713 222 694L150 742L155 843ZM102 687L99 619Q73 627 53 648L102 687ZM147 690L200 654Q177 626 144 618L147 690Z" />
<glyph unicode="J" glyph-name="J" horiz-adv-x="442" d="M434 706Q437 686 437 666Q437 587 390 535Q407 445 407 364Q407 -4 67 -4Q36 -4 6 0Q23 96 23 185Q23 222 20 258Q93 235 134 235Q239 235 239 378Q239 435 224 507Q176 532 148 585Q122 635 122 691Q122
761 160 812Q203 868 269 868Q328 868 375 822T434 706ZM390 648Q394 673 389 698Q381 745 351 777T282 814L301 694L390 648ZM376 602L310 637L323 551Q357 565 376 602ZM255 687L236 807Q205 794 187 762T168 688Q168 649 185 615L255 687ZM277 544L264 629L213
576Q241 548 277 544Z" />
<glyph unicode="K" glyph-name="K" horiz-adv-x="632" d="M632 449Q632 338 561 273Q505 17 374 17Q288 17 249 65Q220 102 212 180Q206 248 201 316L179 326L158 318L166 -4Q85 2 0 -2Q23 383 23 811L168 807Q159 660 156 512L274 701Q312 697 352 697Q417 697
500 711L469 664Q541 663 588 598Q632 536 632 449ZM582 449Q582 504 555 546T486 600L489 474L575 400Q582 424 582 449ZM433 469L430 598Q391 585 366 544T341 449Q341 405 358 368L433 469ZM551 346L490 399L492 299Q527 311 551 346ZM436 298L435 378L393 321Q413
304 436 298ZM363 278Q341 296 313 331Q293 391 291 436Q274 417 252 391Q265 379 278 366Q296 348 300 334Q308 300 315 265Q322 244 352 234Q359 232 360 247T363 278Z" />
<glyph unicode="L" glyph-name="L" horiz-adv-x="520" d="M520 160Q516 84 516 8L2 0Q20 208 20 413Q20 574 10 748Q97 745 230 752Q229 710 217 519Q223 520 229 521Q311 525 373 458T440 291Q444 217 413 155Q465 156 520 160ZM382 288Q379 350 344 396T259
450L270 297L377 228Q384 257 382 288ZM211 293L200 446Q154 430 126 382T101 273Q103 240 114 210L211 293ZM353 173L275 223L283 115Q326 130 353 173ZM224 110L216 220L145 158Q178 118 224 110Z" />
<glyph unicode="M" glyph-name="M" horiz-adv-x="789" d="M765 543Q772 475 750 414Q745 191 754 31L580 20L574 268Q556 267 538 270Q514 159 496 49Q388 59 283 49L170 408L184 0L23 -2L6 643Q182 645 305 660L396 275L410 348Q348 425 348 531Q348 626 399
695T531 773Q591 779 644 747T731 654L758 656L756 592Q762 568 765 543ZM704 536Q698 600 661 645T573 700L587 539L701 469Q708 502 704 536ZM678 410L593 462L603 347Q650 363 678 410ZM525 534L511 695Q466 679 438 634T409 529Q409 484 425 444L525 534ZM541
342L531 456L459 391Q494 351 541 342Z" />
<glyph unicode="N" glyph-name="N" horiz-adv-x="530" d="M508 271Q512 228 497 187Q498 110 498 45L321 31Q309 55 296 80Q255 94 228 130T196 216Q194 246 201 275L141 400Q144 269 152 6L0 -4Q0 72 9 230Q17 384 17 463Q17 551 10 625L256 619L339 413Q347
414 355 414Q353 493 338 664Q387 661 488 666Q489 598 494 326Q506 300 508 271ZM463 263Q459 303 434 331T374 364L375 270L461 224Q465 243 463 263ZM443 178L376 214L378 127Q418 140 443 178ZM328 280L327 360Q287 347 263 308T242 224Q242 217 244 209L286
245V245Q286 245 328 280ZM331 122L329 222L262 166Q288 129 331 122Z" />
<glyph unicode="O" glyph-name="O" horiz-adv-x="527" d="M503 359Q503 202 430 98Q347 -20 196 -20Q-6 -20 -6 225Q-6 386 52 492Q124 626 272 626Q503 626 503 359ZM389 320Q395 387 364 434T282 487L276 334L372 250Q387 284 389 320ZM221 477Q176 458 145
411T109 304Q107 274 113 246L215 325L221 477ZM335 190L273 245L269 144Q306 157 335 190ZM212 246L137 188Q164 147 209 139L212 246Z" />
<glyph unicode="P" glyph-name="P" horiz-adv-x="578" d="M579 565Q579 441 528 373Q484 315 392 288Q335 272 197 256Q195 171 201 0H2Q2 146 9 369Q14 554 20 738Q79 738 201 742T384 746Q476 746 526 702Q579 655 579 565ZM463 519Q463 593 412 642T286 692Q199
692 133 628T66 477Q66 403 117 354T243 304Q330 304 396 368T463 519ZM405 513Q405 495 400 477L293 525L287 635Q338 632 371 598T405 513ZM372 422Q343 386 301 370L296 456L372 422ZM233 521L129 445Q123 463 123 483Q123 530 152 569T228 626L233 521ZM242
361Q192 364 159 397L237 454L242 361Z" />
<glyph unicode="Q" glyph-name="Q" horiz-adv-x="556" d="M529 -14L432 -145Q412 -96 367 0Q315 -26 255 -26Q134 -26 64 79Q4 171 4 298Q4 421 65 550Q139 705 248 705Q270 705 307 691Q430 642 475 577T520 380Q520 280 511 226Q497 141 457 97L447 86L529 -8V-14ZM401
350Q401 432 358 491T254 550Q192 550 149 491T106 350Q106 268 149 210T254 151Q315 151 358 209T401 350ZM358 350Q358 319 348 291L278 359L274 490Q310 480 334 441T358 350ZM232 360L163 280Q150 313 150 350Q150 400 172 438T228 489L232 360ZM326 247Q307
223 283 213L280 291L326 247ZM236 209Q210 215 189 238L234 291L236 209Z" />
<glyph unicode="R" glyph-name="R" horiz-adv-x="737" d="M715 285Q715 155 674 91Q624 13 501 13Q394 13 362 90Q358 99 337 233Q325 310 267 310L248 307L244 303Q241 245 244 151Q248 29 248 0L158 -1L6 0Q49 283 49 494Q49 621 33 750L37 754L167 767Q228
811 304 811Q373 811 431 774Q600 751 600 581Q600 499 541 449Q501 414 408 381L412 371Q438 359 450 318Q458 284 465 250L478 239Q497 254 497 317Q497 346 492 396L498 402Q561 406 658 406H709Q715 389 715 389V285ZM467 588Q467 646 428 690T331 744L337
616L462 547Q467 567 467 588ZM429 487L341 535L346 436Q396 449 429 487ZM268 619L262 740Q209 727 175 685T141 588Q141 565 148 543L268 619ZM278 432L273 540L182 484Q221 441 278 432Z" />
<glyph unicode="S" glyph-name="S" horiz-adv-x="518" d="M495 238Q495 108 398 40Q314 -19 178 -19Q71 -19 33 65Q9 119 9 242Q9 272 15 291L122 292Q130 305 139 317Q76 322 45 356Q4 402 4 515Q4 639 83 708Q158 773 285 773Q371 773 422 722T474 584V447L470
443Q397 448 351 450Q331 438 308 436Q257 430 218 469T175 571Q174 588 176 604Q146 598 146 564Q146 455 236 430Q321 415 405 400Q495 366 495 238ZM385 594Q382 630 362 656T313 689L315 607L383 564Q386 579 385 594ZM279 601L276 687Q246 677 227 646T211
575Q212 561 216 548L279 601ZM368 522L317 555L319 482Q349 491 368 522ZM282 480L280 547L236 510Q255 486 282 480ZM387 196Q387 246 357 283T283 327L289 240L338 210V210Q338 210 386 180Q387 188 387 196ZM371 130L293 178L301 70Q347 85 371 130ZM240 220L233
322Q195 310 171 275T147 196Q147 175 153 155L240 220ZM251 66L244 160L177 109Q206 72 251 66Z" />
<glyph unicode="T" glyph-name="T" horiz-adv-x="631" d="M444 377Q429 377 415 378L416 6L405 -2Q371 6 326 6Q303 6 257 3T189 0Q211 333 211 532Q211 554 203 584Q93 584 4 570Q0 584 0 584Q0 777 0 777L4 783Q59 783 155 782Q262 781 305 781Q363 781 409
782Q426 787 444 788Q464 789 483 785Q547 788 604 795L615 787Q615 723 620 644Q626 619 626 592Q626 507 573 444T444 377ZM461 728L467 601L562 530Q573 559 573 589Q573 645 541 684T461 728ZM405 720Q366 704 341 664T315 576Q315 551 322 527L411 593L405
720ZM471 527L475 442Q508 453 532 481L471 527ZM415 527L349 479Q377 445 419 438L415 527Z" />
<glyph unicode="U" glyph-name="U" horiz-adv-x="561" d="M523 643V481Q523 50 509 0H319Q113 0 48 97Q-2 172 -2 389Q-2 590 22 719L224 742Q224 739 192 592Q173 502 169 442Q222 477 287 471Q298 470 309 468Q308 573 306 715Q354 721 402 728Q459 735 498
735Q498 735 521 732L523 643ZM435 230Q435 292 398 340T307 402L314 295L374 253V253Q375 252 434 210Q435 221 435 230ZM415 150L320 218L329 84Q385 97 415 150ZM254 276L245 402Q198 391 169 351T139 256Q139 230 146 204L254 276ZM267 84L259 201L176 146Q212
97 267 84Z" />
<glyph unicode="V" glyph-name="V" horiz-adv-x="643" d="M518 287L537 242L521 139L483 84Q475 40 468 6L473 3L469 2L453 1L389 -25L272 -29L203 -13L201 4L198 3L183 62L161 89L135 161L94 217L89 312L112 333Q58 531 2 698L9 709Q87 709 181 720Q197 748 227
748Q261 748 302 717L339 531L342 551L365 674L374 700Q394 738 422 738Q434 738 447 731Q465 731 546 730Q608 729 646 730L654 725Q570 559 518 287ZM349 372L351 373L354 374L409 370L430 365Q433 364 433 363Q433 364 436 364L455 359L443 393V452L449 555L459
680Q442 704 426 704Q414 704 405 687V687L398 666L375 546L357 412L332 410L302 542L272 699Q250 716 232 716Q211 716 204 687L218 582L238 463H251L258 464L263 460L315 419L349 372ZM320 358L290 399L248 431H227L188 411L174 356L222 360L228 356L273 319L284
306L311 296V297Q306 329 321 356L320 358ZM250 297L212 328L151 324L123 298L127 229L165 177L191 105L227 60L233 14L276 4L382 8L436 30L439 81L489 152L503 238L473 310L465 322L398 338L361 340H362L350 338Q347 333 342 321Q341 302 350 288L400 270L406
269L421 235L413 226L370 176L348 93L328 86L342 187L345 191L383 236L381 240L332 258L328 259L325 263L322 261Q322 260 326 256L333 189L286 156L277 162L239 184L237 187Q198 238 193 251H188L165 264L172 281Q199 276 203 268L210 273L261 208L285 194L299
204L295 243L250 297Z" />
<glyph unicode="W" glyph-name="W" horiz-adv-x="860" d="M848 691Q715 294 682 21L672 14Q515 14 434 4Q419 114 393 334Q336 155 336 0L123 -2L109 0L104 31Q53 49 21 92T-12 189Q-12 273 57 323Q39 446 -2 691L2 695L205 691Q222 488 238 342L299 604Q311 604
464 599Q464 604 464 608Q464 685 509 740T618 795Q710 795 754 697Q785 695 848 691ZM727 608Q727 655 704 691T644 738L641 619L720 559Q727 583 727 608ZM598 739Q560 731 535 694T509 608Q509 585 516 562L595 620L598 739ZM698 518L640 562L638 477Q674 485
698 518ZM594 562L536 520Q559 488 593 478L594 562ZM576 428Q565 432 555 438Q563 381 564 336Q568 378 576 428ZM283 189Q283 233 254 266T180 306L185 210L278 159Q283 174 283 189ZM254 113L188 150L192 75Q229 85 254 113ZM134 212L129 304Q89 293 64 262T38
189Q38 172 43 155L134 212ZM141 73L137 154L69 111Q98 79 141 73Z" />
<glyph unicode="X" glyph-name="X" horiz-adv-x="631" d="M614 687Q544 602 466 477Q488 427 491 369Q495 302 472 244L602 28Q478 -6 401 -14Q383 32 344 123Q336 122 327 121Q309 120 291 124Q277 86 243 11L15 56Q42 88 88 156T159 255Q141 300 138 351Q136
392 144 432Q44 576 -12 654Q43 666 153 679L172 680Q200 629 234 576Q266 597 302 599Q335 601 366 587L439 737L614 687ZM440 367Q436 429 405 474T331 529L344 372L432 295Q441 329 440 367ZM288 371L275 525Q235 508 211 461T190 354Q193 309 211 270L288 371ZM408
241L351 291L358 197Q387 211 408 241ZM303 190L295 288L244 222Q271 196 303 190Z" />
<glyph unicode="Y" glyph-name="Y" horiz-adv-x="620" d="M637 779Q590 638 543 496Q465 268 396 146Q300 -25 205 -25Q120 -25 77 60Q43 127 43 222V297Q95 295 211 275Q210 268 203 228Q198 199 198 180Q198 148 215 135Q254 147 254 195Q254 217 207 335Q196
333 185 333Q115 333 66 399T17 560Q17 634 49 694Q25 746 14 766L108 763Q144 788 185 788Q255 788 303 721T352 560Q352 524 344 490L352 467Q384 572 439 783L631 785L637 779ZM303 560Q303 619 276 663T208 720L213 570L292 492Q303 525 303 560ZM160 572L155
718Q117 705 92 661T66 560Q66 517 81 480L160 572ZM267 443L215 493L218 404Q246 415 267 443ZM165 399L162 492L111 433Q135 406 165 399Z" />
<glyph unicode="Z" glyph-name="Z" horiz-adv-x="584" d="M560 599Q506 523 452 456Q499 436 527 389T556 282Q556 247 546 214Q540 80 523 2Q477 2 367 0Q267 -2 211 -1L4 0Q9 47 7 112Q5 169 2 225Q128 321 328 553L320 555Q295 555 23 461Q23 493 21 561T19
663Q19 663 23 691Q132 702 289 726Q422 746 555 766L557 596L560 599ZM503 276Q503 331 471 369T391 409L397 282L492 217Q503 246 503 276ZM462 166L401 208L405 124Q438 136 462 166ZM341 271L335 398Q296 380 271 339T245 249Q245 224 252 201L341 271ZM349
117L345 206L279 154Q307 122 349 117Z" />
<glyph unicode="[" glyph-name="bracketleft" horiz-adv-x="593" d="M568 470Q568 338 496 238Q418 129 296 129Q175 129 96 238Q25 338 25 470Q25 602 96 702Q175 811 296 811Q418 811 496 702Q568 602 568 470ZM493 470Q493 580 436 658T296 736Q214 736 157
658T100 470Q100 361 157 283T296 204Q378 204 435 282T493 470ZM435 470Q435 429 422 391L329 482L324 657Q372 644 403 592T435 470ZM267 484L176 377Q158 420 158 470Q158 537 187 588T262 655L267 484ZM392 333Q368 300 335 287L332 392L392 333ZM273 282Q238
290 210 321L270 391L273 282Z" />
<glyph unicode="\" glyph-name="backslash" horiz-adv-x="580" d="M555 379Q555 255 484 163Q407 63 290 63Q173 63 96 163Q25 255 25 379Q25 502 96 595Q173 694 290 694Q407 694 484 595Q555 502 555 379ZM480 379Q480 478 425 548T290 619Q211 619 156 549T100
379Q100 280 155 209T290 138Q369 138 424 209T480 379ZM424 379Q424 331 404 289L322 401L325 545Q368 530 396 484T424 379ZM262 547L260 407L163 324Q156 351 156 379Q156 441 186 488T262 547ZM366 237Q344 218 318 211L320 300L366 237ZM258 323L256 213Q217
226 190 265L258 323Z" />
<glyph unicode="]" glyph-name="bracketright" horiz-adv-x="618" d="M593 380Q593 250 515 154Q432 52 309 52Q185 52 103 154Q25 250 25 380Q25 510 103 606Q185 708 309 708Q432 708 515 606Q593 510 593 380ZM518 380Q518 484 457 558T309 633Q222 633 161
559T100 380Q100 275 161 201T309 127Q396 127 457 201T518 380ZM457 380Q457 348 448 318L340 396L337 558Q388 546 422 496T457 380ZM278 395L171 313Q161 346 161 380Q161 444 193 493T274 556L278 395ZM420 261Q389 217 344 204L341 318L420 261ZM281 202Q233
213 200 257L279 318L281 202Z" />
<glyph unicode="^" glyph-name="asciicircum" horiz-adv-x="1922" d="M1881 810Q1870 808 1860 796T1849 773V626H1816V809Q1816 820 1808 827L1828 851Q1847 845 1849 820Q1873 851 1881 851V810ZM1801 786Q1801 727 1753 715Q1753 696 1760 680Q1769 660 1785
660Q1790 660 1799 665V627Q1792 624 1781 624Q1717 624 1717 737V763Q1717 851 1759 851Q1801 851 1801 786ZM1700 626H1667V809Q1667 818 1658 818Q1654 818 1650 813V626H1617V810Q1617 822 1610 827L1631 852Q1641 849 1648 836Q1660 852 1673 852Q1700 852
1700 812V626ZM1598 626H1565V808Q1565 819 1557 818Q1551 816 1547 812V626H1514V916H1548V839Q1559 852 1571 852Q1598 852 1598 810V626ZM1500 738Q1500 624 1459 624Q1416 624 1416 738Q1416 851 1457 851Q1500 851 1500 738ZM1408 626H1346V916H1385V665H1408V626ZM1743
262H1710V442Q1710 454 1702 454Q1696 452 1693 447V262H1660V443Q1660 454 1652 454Q1646 452 1642 447V262H1609V450Q1609 459 1604 464L1623 487Q1637 483 1641 471Q1652 488 1667 488Q1682 488 1690 471Q1703 488 1717 488Q1743 488 1743 447V262ZM1291 653L1271
624Q1258 627 1254 644Q1242 624 1231 624Q1199 624 1199 709V749Q1199 852 1250 852V916H1283V680Q1283 660 1291 653ZM1189 649L1163 624Q1145 630 1145 654V916H1179V672Q1179 653 1189 649ZM1592 373Q1592 260 1552 260Q1509 260 1509 373Q1509 487 1550 487Q1592
487 1592 373ZM1911 -102H1878V78Q1878 90 1870 90Q1864 87 1861 83V-102H1827V79Q1827 90 1819 90Q1814 87 1810 83V-102H1777V86Q1777 95 1772 99L1791 123Q1805 119 1809 106Q1820 123 1835 123Q1850 123 1858 107Q1871 123 1885 123Q1911 123 1911 82V-102ZM1499
265Q1491 259 1483 259Q1436 259 1436 360V393Q1436 487 1484 487Q1491 487 1499 484V451Q1493 453 1491 453Q1470 453 1470 393V359Q1470 294 1488 294Q1496 294 1499 298V265ZM1128 738Q1128 624 1088 624Q1045 624 1045 738Q1045 851 1086 851Q1128 851 1128
738ZM1380 284L1355 260Q1337 265 1337 290V552H1370V307Q1370 289 1380 284ZM1036 810Q1025 808 1015 796T1004 773V626H971V809Q971 820 963 827L983 851Q1002 845 1004 820Q1028 851 1036 851V810ZM1760 9Q1760 -105 1720 -105Q1676 -105 1676 9Q1676 123 1718
123Q1760 123 1760 9ZM1428 281Q1428 260 1407 260Q1385 260 1385 281Q1385 302 1407 302Q1428 302 1428 281ZM1320 373Q1320 260 1279 260Q1236 260 1236 373Q1236 487 1277 487Q1320 487 1320 373ZM960 653L940 624Q930 627 922 644Q913 624 899 624Q867 624
867 724V751Q867 851 935 851H951V685Q951 660 960 653ZM1667 -99Q1659 -105 1650 -105Q1604 -105 1604 -4V28Q1604 123 1652 123Q1659 123 1667 120V86Q1661 89 1658 89Q1638 89 1638 28V-5Q1638 -71 1656 -71Q1664 -71 1667 -66V-99ZM847 626H809V749H788V626H749V916H788V786H809V916H847V626ZM1231
289L1211 260Q1201 263 1193 279Q1184 260 1170 260Q1138 260 1138 359V386Q1138 487 1206 487H1222V321Q1222 295 1231 289ZM1546 -54Q1546 -105 1507 -105Q1495 -105 1485 -99V-65Q1490 -72 1498 -72Q1515 -72 1515 -55Q1515 -33 1500 8T1485 72Q1485 123 1520
123Q1530 123 1542 116V85Q1536 91 1530 91Q1516 91 1516 73Q1516 53 1531 11T1546 -54ZM1596 -84Q1596 -105 1574 -105Q1553 -105 1553 -84Q1553 -62 1574 -62Q1596 -62 1596 -84ZM1476 -98Q1467 -104 1458 -104Q1426 -104 1426 -66V92H1409V102Q1420 114 1450
157H1459V121H1476V92H1459V-61Q1459 -72 1468 -72Q1470 -72 1476 -69V-98ZM694 709Q694 629 620 624V664Q653 668 653 710Q653 755 620 755V788L623 787Q652 787 652 842Q652 879 631 879Q626 879 620 877V914Q628 918 639 918Q666 918 681 892Q692 871 692 841Q692
792 665 775Q694 754 694 709ZM1109 421Q1109 388 1097 358Q1081 319 1053 319Q1034 319 1028 341Q1016 319 997 319Q961 319 961 382Q961 411 973 439Q989 473 1014 473Q1031 473 1039 456L1041 467H1071Q1065 442 1059 416Q1052 385 1052 365Q1052 361 1053 356L1058
353Q1071 353 1079 383Q1085 404 1085 423Q1085 456 1069 479T1022 503Q982 503 959 465Q940 432 940 390Q940 349 957 319Q978 284 1017 284Q1051 284 1084 321L1095 294Q1059 251 1015 251Q965 251 937 298Q914 337 914 391Q914 445 939 487Q969 536 1020 536Q1063
536 1088 499Q1109 467 1109 421ZM1396 -102H1363V80Q1363 90 1354 90Q1349 90 1346 84V-102H1313V81Q1313 94 1306 99L1327 123Q1336 121 1344 107Q1356 123 1369 123Q1396 123 1396 84V-102ZM608 768Q608 624 558 624Q503 624 503 770Q503 918 555 918Q608 918
608 768ZM1298 9Q1298 -105 1257 -105Q1214 -105 1214 9Q1214 123 1256 123Q1298 123 1298 9ZM892 445Q881 443 871 432T860 408V262H827V445Q827 456 819 463L839 487Q858 480 860 455Q884 487 892 487V445ZM490 768Q490 624 440 624Q386 624 386 770Q386 918
438 918Q490 918 490 768ZM1205 158Q1192 156 1189 144Q1189 141 1189 121H1205V92H1189V-85Q1189 -145 1142 -145V-108Q1156 -109 1156 -80V92H1142V121H1156Q1156 191 1200 189H1205V158ZM812 422Q812 362 764 350Q764 332 771 316Q780 296 796 296Q801 296 810
300V263Q803 260 792 260Q728 260 728 373V398Q728 487 770 487Q812 487 812 422ZM1133 -54Q1133 -105 1094 -105Q1082 -105 1072 -99V-65Q1077 -72 1085 -72Q1102 -72 1102 -55Q1102 -33 1087 8T1072 72Q1072 123 1107 123Q1116 123 1129 116V85Q1123 91 1117
91Q1103 91 1103 73Q1103 53 1118 11T1133 -54ZM372 626H291Q329 759 329 841Q329 874 309 874Q299 874 291 865V903Q309 918 324 918Q369 918 369 848Q369 791 341 664H372V626ZM1066 -76L1047 -105Q1033 -101 1029 -85Q1017 -104 1006 -104Q974 -104 974 -20V20Q974
123 1025 123V188H1058V-49Q1058 -69 1066 -76ZM711 262H678V445Q678 454 669 454Q665 454 661 449V262H628V445Q628 458 621 463L642 487Q652 485 659 472Q671 487 684 487Q711 487 711 448V262ZM964 -80L938 -104Q921 -99 921 -75V188H954V-57Q954 -75 964 -80ZM609
262H576V443Q576 454 568 454Q562 452 558 447V262H525V552H559V474Q570 488 582 488Q609 488 609 445V262ZM272 757Q272 710 251 671Q226 623 183 623Q139 623 114 670Q93 710 93 757Q93 805 114 844Q139 892 183 892Q226 892 251 844Q272 805 272 757ZM904 9Q904
-105 863 -105Q820 -105 820 9Q820 123 861 123Q904 123 904 9ZM511 373Q511 260 470 260Q427 260 427 373Q427 487 468 487Q511 487 511 373ZM419 262H357V552H396V300H419V262ZM811 81Q800 79 790 67T779 44V-102H746V81Q746 92 738 98L759 123Q777 116 779 91Q803
123 811 123V81ZM735 -76L715 -104Q705 -102 697 -85Q688 -104 674 -104Q642 -104 642 -5V22Q642 123 710 123H726V-43Q726 -69 735 -76ZM336 262H297V384H277V262H238V552H277V422H297V552H336V262ZM623 -102H590V79Q590 90 582 90Q576 88 572 83V-102H539V188H573V110Q583
123 596 123Q623 123 623 81V-102ZM527 -84Q527 -105 506 -105Q484 -105 484 -84Q484 -62 506 -62Q527 -62 527 -84ZM477 121L451 -105H424L411 39L398 -105H371L345 121H378L385 -32L396 121H426L437 -30L444 121H477ZM337 121L311 -105H284L271 39L258 -105H231L204
121H238L245 -32L255 121H286L297 -30L304 121H337ZM197 121L171 -105H144L131 39L118 -105H91L64 121H98L105 -32L115 121H146L156 -30L164 121H197ZM1768 785Q1768 807 1760 817Q1752 801 1752 780V751Q1768 757 1768 785ZM1466 737Q1466 807 1458 813Q1450 807
1450 741Q1450 670 1458 663Q1466 672 1466 737ZM1250 660V811Q1232 806 1232 760V714Q1232 657 1244 657Q1247 657 1250 660ZM1559 373Q1559 443 1551 448Q1543 442 1543 377Q1543 306 1551 298Q1559 307 1559 373ZM1095 737Q1095 807 1087 813Q1079 807 1079
741Q1079 670 1087 663Q1095 672 1095 737ZM1727 8Q1727 79 1719 84Q1711 78 1711 12Q1711 -58 1719 -66Q1727 -57 1727 8ZM1286 373Q1286 443 1278 448Q1270 442 1270 377Q1270 306 1278 298Q1286 307 1286 373ZM918 659V810Q900 804 900 753V712Q900 657 912
657Q915 657 918 659ZM1189 295V445Q1172 440 1172 389V348Q1172 293 1183 293Q1186 293 1189 295ZM1030 423Q1030 442 1020 442Q1008 442 1000 415Q993 394 993 378Q993 352 1005 352Q1015 352 1023 383Q1030 407 1030 423ZM567 766Q567 855 556 873Q544 859 544
776Q544 683 556 668Q567 685 567 766ZM1264 8Q1264 79 1256 84Q1248 78 1248 12Q1248 -58 1256 -66Q1264 -57 1264 8ZM449 766Q449 855 438 873Q427 859 427 776Q427 683 439 668Q449 685 449 766ZM779 421Q779 442 771 452Q763 437 763 416V387Q779 393 779 421ZM1025
-68V82Q1008 77 1008 31V-15Q1008 -72 1019 -72Q1022 -72 1025 -68ZM248 757Q248 794 233 824Q215 863 183 863Q150 863 132 824Q118 794 118 757Q118 721 132 690Q150 652 183 652Q215 652 233 690Q248 721 248 757ZM870 8Q870 79 862 84Q854 78 854 12Q854 -58
862 -66Q870 -57 870 8ZM477 373Q477 443 469 448Q461 442 461 377Q461 306 469 298Q477 307 477 373ZM693 -69V81Q676 76 676 24V-17Q676 -72 687 -72Q690 -72 693 -69ZM231 774H202Q198 801 185 801Q166 801 166 756Q166 713 186 713Q199 713 202 739H230Q223
676 185 676Q159 676 144 705Q133 728 133 757Q133 787 143 809Q157 838 183 838Q223 838 231 774Z" />
<glyph unicode="_" glyph-name="underscore" horiz-adv-x="643" d="M652 719Q572 560 522 307Q528 283 528 258Q528 196 493 145Q484 97 467 0L470 -2H469H446Q417 -3 359 2T272 7Q231 7 199 0Q184 61 170 116Q110 175 110 258Q110 287 118 314Q62 521 4 693L10
703Q105 703 232 719Q258 669 272 594Q277 566 290 459Q304 461 319 461Q361 461 399 445Q434 610 439 721L445 725Q465 725 546 724Q608 723 646 723L652 719ZM467 258Q467 311 432 351T343 399L349 283L462 221Q467 239 467 258ZM433 166L353 210L358 120Q403
131 433 166ZM287 286L281 397Q233 384 202 346T171 258Q171 237 177 217L287 286ZM295 117L290 215L208 163Q243 125 295 117Z" />
<glyph unicode="`" glyph-name="grave" horiz-adv-x="511" d="M138 742Q169 735 265 704T404 662L432 736Q231 832 202 871Q190 829 138 742Z" />
<glyph unicode="a" glyph-name="a" horiz-adv-x="523" d="M496 478Q496 212 483 43Q346 -21 205 -21Q119 -21 69 19Q13 63 13 146Q13 241 126 305Q207 350 325 371L326 394Q327 431 316 461Q301 502 269 502Q226 502 226 435Q226 411 231 387Q196 392 163 392Q108
392 57 377Q49 402 49 402Q49 532 98 592Q152 659 279 659Q357 659 424 608Q496 553 496 478ZM436 180Q436 240 397 283T302 326Q246 326 207 283T168 180Q168 120 207 77T302 34Q358 34 397 77T436 180ZM397 180Q397 160 390 142L322 189L324 281Q356 273 376
245T397 180ZM284 282L282 189L213 144Q207 161 207 180Q207 218 229 247T284 282ZM372 109Q350 84 320 77L321 144L372 109ZM281 144L280 78Q250 86 231 111L281 144Z" />
<glyph unicode="b" glyph-name="b" horiz-adv-x="515" d="M495 363Q495 -12 165 -12Q79 -12 17 -9Q19 32 33 154Q45 256 45 317Q45 572 20 791Q54 799 105 801Q148 803 191 805Q199 755 201 632Q249 632 286 628Q292 629 299 629Q342 629 381 605Q481 560 493
404Q495 372 495 363ZM438 363Q438 432 406 484T327 550L332 374L425 284Q438 322 438 363ZM270 377L265 548Q219 532 190 481T160 363Q160 313 178 269L270 377ZM395 226L334 285L338 180Q370 193 395 226ZM276 175L272 284L213 214Q240 183 276 175Z" />
<glyph unicode="c" glyph-name="c" horiz-adv-x="493" d="M478 297Q464 145 436 94Q390 7 262 7Q123 7 67 89Q20 156 20 302Q20 429 63 519Q120 636 232 636Q330 636 390 568Q446 503 445 405V396L273 392Q278 419 255 440T204 461Q168 461 159 370Q201 368 233
338T277 260Q276 277 273 297H478ZM245 218Q245 258 223 288T169 324L173 237L241 190Q245 204 245 218ZM135 239L131 322Q102 313 84 284T65 218Q65 203 68 187L135 239ZM223 149L175 182L178 114Q205 123 223 149ZM140 112L137 186L87 147Q108 118 140 112Z"
/>
<glyph unicode="d" glyph-name="d" horiz-adv-x="524" d="M505 409Q505 222 430 118Q343 -2 163 -2Q146 -2 89 0Q43 1 15 0Q34 378 27 650Q133 649 239 648Q363 641 425 597Q505 539 505 409ZM387 367Q387 419 362 460T297 515L282 370L371 288Q387 326 387 367ZM242
521Q196 513 162 473T121 376Q117 345 123 315L227 376L242 521ZM340 240L275 300L265 198Q307 205 340 240ZM220 307L143 261Q167 218 209 203L220 307Z" />
<glyph unicode="e" glyph-name="e" horiz-adv-x="485" d="M459 285Q449 214 439 143Q422 61 387 20Q341 -32 257 -32Q157 -32 83 24Q2 86 2 182Q2 288 32 395Q69 530 139 590Q184 664 264 664Q313 664 352 632T407 550Q443 499 443 437Q443 382 420 326H297Q281
322 264 322Q247 322 230 326H188Q168 326 168 233Q168 213 177 197Q187 177 206 177Q238 177 238 235Q238 265 229 299Q306 282 459 285ZM371 493Q371 539 345 573T278 613L283 507L362 444Q371 468 371 493ZM237 503L232 609Q199 597 178 565T156 493Q156 472
162 452L237 503ZM338 404L286 445L289 375Q317 382 338 404ZM243 373L239 448L184 411Q208 381 243 373Z" />
<glyph unicode="f" glyph-name="f" horiz-adv-x="428" d="M528 776L525 655Q479 663 427 665Q452 620 456 568Q467 447 383 371L384 339L293 324L315 6L100 -14Q79 163 79 293V306L5 303L2 462L66 471Q55 501 53 533Q44 628 98 700Q127 761 192 789T375 817Q464
817 528 776ZM397 563Q392 624 353 666T260 712L279 572L391 497Q400 529 397 563ZM363 441L290 490L302 396Q338 410 363 441ZM217 560L198 701Q156 682 132 637T111 538Q114 510 124 485L217 560ZM240 390L227 488L158 432Q194 396 240 390Z" />
<glyph unicode="g" glyph-name="g" horiz-adv-x="618" d="M591 503Q591 487 591 446Q592 406 592 382Q592 181 555 72Q500 -89 357 -99Q247 -107 182 -56Q113 -1 114 106V112L264 122L263 101Q261 75 276 58T318 43Q383 47 397 139Q378 133 357 132Q291 127 237
165Q228 164 216 163Q126 157 71 206T15 345Q15 488 96 564T321 640Q442 640 584 575Q591 551 591 503ZM506 370Q506 431 469 474T377 522L385 416L444 383V383Q445 383 504 350Q506 360 506 370ZM485 287L390 340L399 207Q456 229 485 287ZM324 388L315 512Q269
494 239 449T209 350Q209 324 217 299L324 388ZM337 198L329 314L246 245Q283 202 337 198Z" />
<glyph unicode="h" glyph-name="h" horiz-adv-x="589" d="M563 19L325 -23V105Q280 131 252 183T223 298Q223 397 286 455Q275 460 262 460Q184 460 184 168Q184 132 186 87Q187 49 187 46L16 68L37 795H215V588Q313 647 362 647Q522 647 554 343Q561 313 561
281Q561 268 560 255Q561 163 563 19ZM512 283Q512 337 484 379T415 433L417 301L505 233Q512 257 512 283ZM367 303L364 434Q324 424 298 386T272 296Q272 268 281 242L367 303ZM483 188L419 238L420 145Q457 154 483 188ZM370 147L368 240L304 195Q331 158 370
147Z" />
<glyph unicode="i" glyph-name="i" horiz-adv-x="323" d="M313 669Q313 573 255 512Q256 409 256 229V4L47 0Q61 151 66 495Q-10 555 -10 669Q-10 753 37 813T151 873Q219 873 266 813T313 669ZM265 669Q265 721 240 761T175 812L177 693L259 622Q265 645 265
669ZM125 688L122 810Q85 797 62 758T38 669Q38 628 54 593L125 688ZM237 572L179 622L181 528Q214 539 237 572ZM128 526L126 602L87 549Q106 532 128 526Z" />
<glyph unicode="j" glyph-name="j" horiz-adv-x="469" d="M446 427Q448 389 434 354Q435 305 435 263Q435 123 358 51T139 -21Q72 -21 20 -8L34 197Q80 182 117 182Q199 182 228 254Q178 269 145 311T109 409Q108 420 109 431L41 428L48 638Q138 626 246 626Q353
626 428 638Q429 602 431 489Q444 459 446 427ZM397 424Q395 466 368 497T302 537V443L394 389Q398 407 397 424ZM371 342L303 383V299Q345 308 371 342ZM252 438V537Q209 528 183 493T158 412Q159 396 164 380L252 438ZM253 299L252 376L190 335Q216 307 253 299Z"
/>
<glyph unicode="k" glyph-name="k" horiz-adv-x="596" d="M602 76L477 -54Q386 -6 316 70Q280 52 241 52Q225 52 209 55L210 -8H14L30 638H188L195 501Q217 508 241 508Q275 508 306 494Q353 570 378 647L552 538L420 352Q429 317 429 280Q429 260 426 240Q532
101 602 76ZM375 280Q375 339 344 384T266 440L269 295L366 224Q375 251 375 280ZM213 294L210 439Q166 426 137 382T108 280Q108 249 117 220L213 294ZM342 173L270 224L273 121Q314 133 342 173ZM217 120L214 224L143 169Q173 130 217 120Z" />
<glyph unicode="l" glyph-name="l" horiz-adv-x="407" d="M387 238Q377 135 379 4L20 0L25 209Q19 238 24 267Q25 273 27 279L35 627Q122 627 202 633L197 393Q258 387 300 341T341 233Q365 235 387 238ZM295 238Q295 273 274 302T218 342L207 254L284 192Q295
214 295 238ZM171 348Q133 345 105 321T70 259Q67 243 69 227L161 264L171 348ZM255 155L200 198L192 130Q227 132 255 155ZM154 210L85 182Q106 149 145 136L154 210Z" />
<glyph unicode="m" glyph-name="m" horiz-adv-x="814" d="M794 17H629L603 347L515 83L304 86L254 227Q226 227 200 234L207 44L28 51L22 614L128 623Q177 659 237 659Q310 659 367 608T438 478Q445 442 440 407L497 628L781 604Q767 350 767 350Q767 279 778
183Q792 42 794 17ZM383 419Q386 443 382 468Q373 519 338 554T257 596L269 477L383 419ZM426 354Q424 346 420 340L422 336L426 354ZM365 361L277 407L288 296Q338 313 365 361ZM208 489L198 591Q155 576 129 537T102 448Q102 424 109 401L159 445V445Q159 445
208 489ZM230 291L216 417L137 346Q173 299 230 291Z" />
<glyph unicode="n" glyph-name="n" horiz-adv-x="537" d="M512 662Q501 479 508 66L258 59L170 291Q164 218 164 0H10Q28 314 20 635Q34 635 47 635Q88 715 174 715Q241 715 293 662T352 533Q359 455 314 401Q340 336 377 250L363 652L512 662ZM305 533Q300 582
269 618T194 661L209 548L300 481Q307 506 305 533ZM277 438L218 482L228 407Q257 415 277 438ZM160 543L145 657Q111 644 91 610T75 533Q77 511 86 489L160 543ZM179 405L168 485L113 445Q141 414 179 405Z" />
<glyph unicode="o" glyph-name="o" horiz-adv-x="565" d="M540 354Q540 206 497 108Q439 -26 310 -26Q172 -26 90 94Q18 199 18 343Q18 470 88 570Q167 684 289 684Q425 684 489 579Q540 495 540 354ZM441 331Q443 415 402 477T298 543Q236 546 191 489T143 348Q141
265 182 203T286 137Q347 133 392 190T441 331ZM397 333Q397 308 389 284L314 351L316 481Q352 469 375 428T397 333ZM272 482L270 353L192 292Q186 318 187 346Q188 397 212 435T272 482ZM368 239Q345 206 312 197L313 288L368 239ZM269 291L268 198Q234 209 211
246L269 291Z" />
<glyph unicode="p" glyph-name="p" horiz-adv-x="590" d="M274 112Q245 112 217 121L212 -41L10 -34Q16 70 22 175Q30 301 30 384Q30 440 22 524Q16 593 10 663Q10 663 353 663Q438 663 509 600Q584 535 584 451Q584 238 436 195Q375 112 274 112ZM293 462L300
335L405 259Q417 287 417 317Q417 373 382 414T293 462ZM231 457Q187 443 159 405T131 317Q131 292 139 269L238 329L231 457ZM304 260L308 175Q345 185 372 211L304 260ZM241 264L168 219Q200 184 246 174L241 264Z" />
<glyph unicode="q" glyph-name="q" horiz-adv-x="580" d="M560 372Q560 203 467 94L526 -3L407 -65L385 26Q332 -2 274 -2Q259 -2 244 -1Q213 -26 176 -29Q117 -35 71 14T19 138Q16 171 22 203Q14 238 14 275Q14 426 76 542Q152 684 289 684Q417 684 491 590Q560
504 560 372ZM421 345Q421 392 396 431Q367 476 323 476Q269 476 233 440T197 350Q197 337 199 322Q270 293 295 205Q304 205 313 207L276 269L358 328L389 255Q421 295 421 345ZM261 159Q257 205 231 238T170 278L181 173L259 118Q262 138 261 159ZM243 72L188
111L197 28Q225 41 243 72ZM135 165L124 272Q93 258 75 222T61 142Q64 105 81 76L135 165ZM151 23L144 89L113 40Q131 27 151 23Z" />
<glyph unicode="r" glyph-name="r" horiz-adv-x="637" d="M206 558Q286 564 343 499Q361 523 361 551Q361 591 252 591Q227 591 208 589L206 558ZM201 149Q196 149 191 150Q189 111 189 0H0Q7 134 14 268Q25 494 25 604Q25 692 18 713Q81 713 207 716T396 719Q600
719 600 569Q600 488 536 418Q480 359 394 323Q390 293 379 266Q390 247 391 227Q391 233 391 166Q391 166 400 145L410 142Q432 153 432 230Q432 253 428 307Q586 307 613 285Q613 -14 357 -14Q299 -14 278 41Q272 58 258 154Q230 146 201 149ZM245 496L244 399L293
361V361Q293 361 341 323Q343 332 343 341Q348 396 320 440T245 496ZM243 330L242 210Q291 222 321 269L243 330ZM192 496Q152 486 124 450T91 365Q89 342 94 319L191 383L192 496ZM190 316L115 266Q143 222 189 211L190 316Z" />
<glyph unicode="s" glyph-name="s" horiz-adv-x="504" d="M476 237Q476 136 409 60Q340 -19 240 -19Q130 -19 73 61Q23 131 23 245Q23 279 33 297L142 299Q150 299 157 299Q171 322 189 337Q106 351 79 370Q25 409 25 512Q25 618 96 685T275 752Q370 752 425 667Q472
594 472 494Q472 494 467 482H389Q360 482 344 483Q334 461 318 444Q391 425 426 389Q476 338 476 237ZM320 553Q320 594 296 624T236 661L241 566L312 510Q320 531 320 553ZM199 562L195 657Q165 646 146 618T127 553Q127 534 133 517L199 562ZM289 474L244 510L246
447Q271 454 289 474ZM205 446L202 513L153 480Q174 453 205 446ZM349 210Q349 250 328 280T276 317L278 220L343 172Q349 191 349 210ZM241 219L239 316Q209 308 190 279T170 210Q170 189 176 170L241 219ZM327 138L279 173L280 104Q308 112 327 138ZM243 103L241
173L194 136Q214 109 243 103Z" />
<glyph unicode="t" glyph-name="t" horiz-adv-x="490" d="M477 682Q477 636 475 543T473 402H329Q319 388 306 377L299 2L294 0H123Q130 68 133 165Q134 247 136 330Q65 345 24 402Q14 403 6 402V432Q-10 468 -10 507Q-10 545 6 581V680Q54 678 112 679Q129 685
146 688Q195 696 241 681Q342 683 397 683L477 682ZM310 494Q312 513 309 531Q301 575 268 604T190 637L202 538L310 494ZM291 442L210 474L221 387Q266 402 291 442ZM147 526L134 630Q94 616 69 582T44 507Q44 479 57 453L147 526ZM165 380L155 461L91 409Q124
383 165 380Z" />
<glyph unicode="u" glyph-name="u" horiz-adv-x="522" d="M498 719Q498 600 481 291Q473 137 426 69Q367 -17 223 -17Q120 -17 69 62Q30 123 20 237Q17 278 17 420Q17 469 14 567T10 713Q87 715 242 723L244 717Q244 678 229 611Q212 537 210 505Q313 488 361
381Q375 444 375 532Q375 567 365 719L369 723Q410 728 493 733Q498 719 498 719ZM327 270Q332 325 304 372T230 435L224 306L311 213Q324 239 327 270ZM278 171L221 231L218 146Q251 149 278 171ZM169 311L174 439Q134 433 106 399T73 317Q71 292 76 267L169 311ZM163
155L166 245L98 212Q123 172 163 155Z" />
<glyph unicode="v" glyph-name="v" horiz-adv-x="586" d="M488 326L492 312H495L540 275V190L506 139L486 73L458 35L453 -19L393 -36L289 -39L218 -13L217 -10H169Q84 416 -10 551Q46 554 156 558L150 588Q180 637 212 637Q235 637 255 608L264 586L297 479L307
441L316 478L346 627Q382 655 412 655Q451 655 463 602L462 600L596 586Q535 455 488 326ZM305 317L306 319L334 361L336 363L383 403L389 402H400L420 508L432 600Q426 626 408 626Q393 626 373 610L346 472L320 350H297L267 471L236 575L228 593Q219 606 209
606Q195 606 182 582L202 473L220 383L222 330L214 301L253 313H255L301 318H304L305 317ZM344 251L366 261L375 273L376 274L419 312H425L461 311L446 358L411 373H393L358 342L333 304Q347 284 344 251ZM333 220L331 216L326 215L284 197L283 194L321 153L323
149L338 62L319 68L296 141L248 191L260 223L266 224L309 242Q315 255 314 271Q309 281 306 285L295 286V287L264 283L206 266L200 255L176 190L192 115L240 54L246 9L294 -8L388 -6L425 4L428 46L458 87L478 152L509 200L510 260L483 282L430 283L398 254L390
243L391 240L386 238L360 204L359 170L371 162L391 175L433 235L440 230Q443 238 467 244L475 229L455 216H450Q446 203 414 157L413 154L410 153L372 127L328 154L331 214L334 218L333 220ZM450 239L451 243L462 244L450 239Z" />
<glyph unicode="w" glyph-name="w" horiz-adv-x="813" d="M820 558Q814 485 764 437Q734 276 718 5L475 -5Q476 127 418 312Q406 291 397 268Q405 241 405 213Q405 136 354 82Q353 58 354 35L356 -12Q306 -25 176 -24L113 -23L90 127Q70 167 70 213Q70 227 72
240L13 619L209 628Q204 598 204 559Q204 489 220 394Q229 395 237 395Q253 395 268 392L298 544L479 532L546 270L561 425Q487 485 496 587Q503 662 555 710T674 754Q742 748 784 691T820 558ZM773 563Q777 611 752 650T685 699L680 586L759 512Q771 536 773 563ZM635
699Q599 689 573 658T544 583Q542 561 546 539L630 586L635 699ZM729 472L678 520L675 445Q705 450 729 472ZM628 527L566 493Q589 460 625 448L628 527ZM356 213Q356 262 327 298T253 342L259 256L307 227V227Q308 226 355 197Q356 205 356 213ZM340 148L264 195L271
88Q316 103 340 148ZM211 237L204 337Q167 325 143 291T119 213Q119 192 125 172L211 237ZM221 84L215 178L148 127Q178 91 221 84Z" />
<glyph unicode="x" glyph-name="x" horiz-adv-x="641" d="M417 35Q326 41 267 116Q214 39 192 -28L7 61Q171 261 195 370Q76 522 -10 599L164 668L318 465Q404 596 460 665Q519 669 626 611L493 397Q588 343 602 237Q609 181 586 133L657 38L456 -38L417 35ZM429
364L441 249L535 162Q551 196 546 235Q539 282 507 318T429 364ZM291 179L379 250L367 363Q327 353 302 320T277 242Q277 210 291 179ZM450 166L457 95Q482 101 502 118L450 166ZM324 133Q355 103 395 93L386 183L324 133Z" />
<glyph unicode="y" glyph-name="y" horiz-adv-x="623" d="M629 667Q595 588 527 426Q555 378 555 317Q555 202 473 134L475 -3L215 -11L228 204Q219 228 216 254Q139 392 102 462Q40 579 -2 675L222 696Q244 604 318 480Q361 506 408 504Q464 645 480 732L629
667ZM506 312Q506 363 480 400T413 444L410 314L497 257Q506 284 506 312ZM362 440Q320 426 292 383T264 287Q264 261 272 237L360 310L362 440ZM473 210L409 252L407 158Q446 171 473 210ZM358 247L294 194Q319 161 357 154L358 247Z" />
<glyph unicode="z" glyph-name="z" horiz-adv-x="612" d="M582 629L575 435L329 220L575 185L582 -3L16 18V206L208 329Q148 360 119 420L37 414L-1 629H141Q204 711 310 711Q415 711 477 629H582ZM455 493Q457 514 454 534Q445 583 408 615T321 651L335 541L455
493ZM433 434L343 471L356 373Q406 390 433 434ZM274 528L259 643Q215 628 188 591T160 507Q160 475 173 447L274 528ZM294 365L283 455L212 398Q248 369 294 365Z" />
<glyph unicode="{" glyph-name="braceleft" horiz-adv-x="468" d="M234 255Q147 255 86 314T25 458Q25 542 86 601T234 661Q320 661 381 602T443 458Q443 374 382 315T234 255ZM258 599L264 483L377 421Q382 439 382 458Q382 511 347 551T258 599ZM268 410L272
320Q317 331 347 366L268 410ZM196 597Q148 584 117 546T86 458Q86 437 92 417L202 486L196 597ZM205 415L123 363Q158 325 210 317L205 415Z" />
<glyph unicode="|" glyph-name="bar" horiz-adv-x="468" d="M234 215Q147 215 86 282T25 443Q25 537 86 604T234 671Q321 671 382 604T443 443Q443 349 382 282T234 215ZM254 604L261 497L321 460V460Q322 460 381 423Q382 433 382 443Q382 504 345 550T254 604ZM267
420L276 287Q332 305 362 361L267 420ZM192 598Q145 583 116 541T86 443Q86 417 93 392L201 473L192 598ZM206 399L123 336Q159 290 214 282L206 399Z" />
<glyph unicode="}" glyph-name="braceright" horiz-adv-x="455" d="M228 184Q143 184 84 251T25 412Q25 506 84 573T228 640Q312 640 371 573T430 412Q430 318 371 251T228 184ZM247 573L254 431L359 347Q371 379 371 412Q371 474 336 519T247 573ZM185 567Q141
551 113 509T84 412Q84 384 92 358L192 425L185 567ZM257 349L262 254Q298 265 326 294L257 349ZM195 352L122 303Q154 263 200 253L195 352Z" />
<glyph unicode="~" glyph-name="asciitilde" horiz-adv-x="614" d="M606 584Q542 449 494 315Q532 255 532 179Q532 90 482 26T361 -38Q315 -38 275 -8H182Q98 417 5 550Q174 557 217 557Q234 494 273 364Q314 396 361 395H365Q392 486 407 605L606 584ZM482 179Q482
232 457 273T392 328L390 199L464 98Q482 135 482 179ZM336 330Q295 319 268 277T241 179Q241 154 247 130L334 204L336 330ZM429 51L388 108L386 28Q410 34 429 51ZM332 129L271 76Q295 41 330 29L332 129Z" />
</font>
</defs>
</svg>
